  0
SECTION
  2
HEADER
  9
$ACADVER
  1
AC1015
  9
$ACADMAINTVER
 70
     6
  9
$DWGCODEPAGE
  3
ANSI_1252
  9
$INSBASE
 10
0.0
 20
0.0
 30
0.0
  9
$EXTMIN
 10
-0.00000000000011
 20
0.0
 30
0.0
  9
$EXTMAX
 10
210.0
 20
297.0000000000001
 30
0.0
  9
$LIMMIN
 10
0.0
 20
0.0
  9
$LIMMAX
 10
12.0
 20
9.0
  9
$ORTHOMODE
 70
     0
  9
$REGENMODE
 70
     1
  9
$FILLMODE
 70
     1
  9
$QTEXTMODE
 70
     0
  9
$MIRRTEXT
 70
     1
  9
$LTSCALE
 40
1.0
  9
$ATTMODE
 70
     1
  9
$TEXTSIZE
 40
0.2
  9
$TRACEWID
 40
0.05
  9
$TEXTSTYLE
  7
Standard
  9
$CLAYER
  8
0
  9
$CELTYPE
  6
ByLayer
  9
$CECOLOR
 62
   256
  9
$CELTSCALE
 40
1.0
  9
$DISPSILH
 70
     0
  9
$DIMSCALE
 40
1.0
  9
$DIMASZ
 40
0.18
  9
$DIMEXO
 40
0.0625
  9
$DIMDLI
 40
0.38
  9
$DIMRND
 40
0.0
  9
$DIMDLE
 40
0.0
  9
$DIMEXE
 40
0.18
  9
$DIMTP
 40
0.0
  9
$DIMTM
 40
0.0
  9
$DIMTXT
 40
0.18
  9
$DIMCEN
 40
0.09
  9
$DIMTSZ
 40
0.0
  9
$DIMTOL
 70
     0
  9
$DIMLIM
 70
     0
  9
$DIMTIH
 70
     1
  9
$DIMTOH
 70
     1
  9
$DIMSE1
 70
     0
  9
$DIMSE2
 70
     0
  9
$DIMTAD
 70
     0
  9
$DIMZIN
 70
     0
  9
$DIMBLK
  1

  9
$DIMASO
 70
     1
  9
$DIMSHO
 70
     1
  9
$DIMPOST
  1

  9
$DIMAPOST
  1

  9
$DIMALT
 70
     0
  9
$DIMALTD
 70
     2
  9
$DIMALTF
 40
25.4
  9
$DIMLFAC
 40
1.0
  9
$DIMTOFL
 70
     0
  9
$DIMTVP
 40
0.0
  9
$DIMTIX
 70
     0
  9
$DIMSOXD
 70
     0
  9
$DIMSAH
 70
     0
  9
$DIMBLK1
  1

  9
$DIMBLK2
  1

  9
$DIMSTYLE
  2
Standard
  9
$DIMCLRD
 70
     0
  9
$DIMCLRE
 70
     0
  9
$DIMCLRT
 70
     0
  9
$DIMTFAC
 40
1.0
  9
$DIMGAP
 40
0.09
  9
$DIMJUST
 70
     0
  9
$DIMSD1
 70
     0
  9
$DIMSD2
 70
     0
  9
$DIMTOLJ
 70
     1
  9
$DIMTZIN
 70
     0
  9
$DIMALTZ
 70
     0
  9
$DIMALTTZ
 70
     0
  9
$DIMUPT
 70
     0
  9
$DIMDEC
 70
     4
  9
$DIMTDEC
 70
     4
  9
$DIMALTU
 70
     2
  9
$DIMALTTD
 70
     2
  9
$DIMTXSTY
  7
Standard
  9
$DIMAUNIT
 70
     0
  9
$DIMADEC
 70
     0
  9
$DIMALTRND
 40
0.0
  9
$DIMAZIN
 70
     0
  9
$DIMDSEP
 70
    46
  9
$DIMATFIT
 70
     3
  9
$DIMFRAC
 70
     0
  9
$DIMLDRBLK
  1

  9
$DIMLUNIT
 70
     2
  9
$DIMLWD
 70
    -2
  9
$DIMLWE
 70
    -2
  9
$DIMTMOVE
 70
     0
  9
$LUNITS
 70
     2
  9
$LUPREC
 70
     4
  9
$SKETCHINC
 40
0.1
  9
$FILLETRAD
 40
0.5
  9
$AUNITS
 70
     0
  9
$AUPREC
 70
     0
  9
$MENU
  1
.
  9
$ELEVATION
 40
0.0
  9
$PELEVATION
 40
0.0
  9
$THICKNESS
 40
0.0
  9
$LIMCHECK
 70
     0
  9
$CHAMFERA
 40
0.5
  9
$CHAMFERB
 40
0.5
  9
$CHAMFERC
 40
1.0
  9
$CHAMFERD
 40
0.0
  9
$SKPOLY
 70
     0
  9
$TDCREATE
 40
2456997.429034664
  9
$TDUCREATE
 40
2456997.387367998
  9
$TDUPDATE
 40
2456997.429035023
  9
$TDUUPDATE
 40
2456997.387368356
  9
$TDINDWG
 40
0.0000000116
  9
$TDUSRTIMER
 40
0.0000000116
  9
$USRTIMER
 70
     1
  9
$ANGBASE
 50
0.0
  9
$ANGDIR
 70
     0
  9
$PDMODE
 70
     0
  9
$PDSIZE
 40
0.0
  9
$PLINEWID
 40
0.0
  9
$SPLFRAME
 70
     0
  9
$SPLINETYPE
 70
     6
  9
$SPLINESEGS
 70
     8
  9
$HANDSEED
  5
9AC
  9
$SURFTAB1
 70
     6
  9
$SURFTAB2
 70
     6
  9
$SURFTYPE
 70
     6
  9
$SURFU
 70
     6
  9
$SURFV
 70
     6
  9
$UCSBASE
  2

  9
$UCSNAME
  2

  9
$UCSORG
 10
0.0
 20
0.0
 30
0.0
  9
$UCSXDIR
 10
1.0
 20
0.0
 30
0.0
  9
$UCSYDIR
 10
0.0
 20
1.0
 30
0.0
  9
$UCSORTHOREF
  2

  9
$UCSORTHOVIEW
 70
     0
  9
$UCSORGTOP
 10
0.0
 20
0.0
 30
0.0
  9
$UCSORGBOTTOM
 10
0.0
 20
0.0
 30
0.0
  9
$UCSORGLEFT
 10
0.0
 20
0.0
 30
0.0
  9
$UCSORGRIGHT
 10
0.0
 20
0.0
 30
0.0
  9
$UCSORGFRONT
 10
0.0
 20
0.0
 30
0.0
  9
$UCSORGBACK
 10
0.0
 20
0.0
 30
0.0
  9
$PUCSBASE
  2

  9
$PUCSNAME
  2

  9
$PUCSORG
 10
0.0
 20
0.0
 30
0.0
  9
$PUCSXDIR
 10
1.0
 20
0.0
 30
0.0
  9
$PUCSYDIR
 10
0.0
 20
1.0
 30
0.0
  9
$PUCSORTHOREF
  2

  9
$PUCSORTHOVIEW
 70
     0
  9
$PUCSORGTOP
 10
0.0
 20
0.0
 30
0.0
  9
$PUCSORGBOTTOM
 10
0.0
 20
0.0
 30
0.0
  9
$PUCSORGLEFT
 10
0.0
 20
0.0
 30
0.0
  9
$PUCSORGRIGHT
 10
0.0
 20
0.0
 30
0.0
  9
$PUCSORGFRONT
 10
0.0
 20
0.0
 30
0.0
  9
$PUCSORGBACK
 10
0.0
 20
0.0
 30
0.0
  9
$USERI1
 70
     0
  9
$USERI2
 70
     0
  9
$USERI3
 70
     0
  9
$USERI4
 70
     0
  9
$USERI5
 70
     0
  9
$USERR1
 40
18.1
  9
$USERR2
 40
0.0
  9
$USERR3
 40
0.0
  9
$USERR4
 40
0.0
  9
$USERR5
 40
0.0
  9
$WORLDVIEW
 70
     1
  9
$SHADEDGE
 70
     3
  9
$SHADEDIF
 70
    70
  9
$TILEMODE
 70
     1
  9
$MAXACTVP
 70
    64
  9
$PINSBASE
 10
0.0
 20
0.0
 30
0.0
  9
$PLIMCHECK
 70
     0
  9
$PEXTMIN
 10
1.00000000000000E+20
 20
1.00000000000000E+20
 30
1.00000000000000E+20
  9
$PEXTMAX
 10
-1.00000000000000E+20
 20
-1.00000000000000E+20
 30
-1.00000000000000E+20
  9
$PLIMMIN
 10
0.0
 20
0.0
  9
$PLIMMAX
 10
12.0
 20
9.0
  9
$UNITMODE
 70
     0
  9
$VISRETAIN
 70
     1
  9
$PLINEGEN
 70
     0
  9
$PSLTSCALE
 70
     1
  9
$TREEDEPTH
 70
  3020
  9
$CMLSTYLE
  2
Standard
  9
$CMLJUST
 70
     0
  9
$CMLSCALE
 40
1.0
  9
$PROXYGRAPHICS
 70
     1
  9
$MEASUREMENT
 70
     1
  9
$CELWEIGHT
370
    -1
  9
$ENDCAPS
280
     0
  9
$JOINSTYLE
280
     0
  9
$LWDISPLAY
290
     0
  9
$INSUNITS
 70
     4
  9
$HYPERLINKBASE
  1

  9
$STYLESHEET
  1

  9
$XEDIT
290
     1
  9
$CEPSNTYPE
380
     0
  9
$PSTYLEMODE
290
     1
  9
$FINGERPRINTGUID
  2
{0B6FC576-7B36-4C4E-BB5D-67837364C1D7}
  9
$VERSIONGUID
  2
{FAEB1C32-E019-11D5-929B-00C0DF256EC4}
  9
$EXTNAMES
290
     1
  9
$PSVPSCALE
 40
0.0
  9
$OLESTARTUP
290
     0
  0
ENDSEC
  0
SECTION
  2
CLASSES
  0
CLASS
  1
ACDBDICTIONARYWDFLT
  2
AcDbDictionaryWithDefault
  3
ObjectDBX Classes
 90
        0
280
     0
281
     0
  0
CLASS
  1
VISUALSTYLE
  2
AcDbVisualStyle
  3
ObjectDBX Classes
 90
     4095
280
     0
281
     0
  0
CLASS
  1
MATERIAL
  2
AcDbMaterial
  3
ObjectDBX Classes
 90
     1153
280
     0
281
     0
  0
CLASS
  1
DICTIONARYVAR
  2
AcDbDictionaryVar
  3
ObjectDBX Classes
 90
        0
280
     0
281
     0
  0
CLASS
  1
ACDBPLACEHOLDER
  2
AcDbPlaceHolder
  3
ObjectDBX Classes
 90
        0
280
     0
281
     0
  0
CLASS
  1
LAYOUT
  2
AcDbLayout
  3
ObjectDBX Classes
 90
        0
280
     0
281
     0
  0
ENDSEC
  0
SECTION
  2
TABLES
  0
TABLE
  2
VPORT
  5
8
330
0
100
AcDbSymbolTable
 70
     1
  0
VPORT
  5
29
330
8
100
AcDbSymbolTableRecord
100
AcDbViewportTableRecord
  2
*Active
 70
     0
 10
0.0
 20
0.0
 11
1.0
 21
1.0
 12
104.9999999999999
 22
148.5000000000001
 13
0.0
 23
0.0
 14
0.5
 24
0.5
 15
0.5
 25
0.5
 16
0.0
 26
0.0
 36
1.0
 17
0.0
 27
0.0
 37
0.0
 40
326.7000000000002
 41
1.60267857142857
 42
50.0
 43
0.0
 44
0.0
 50
0.0
 51
0.0
 71
     0
 72
   100
 73
     1
 74
     3
 75
     0
 76
     0
 77
     0
 78
     0
281
     0
 65
     1
110
0.0
120
0.0
130
0.0
111
1.0
121
0.0
131
0.0
112
0.0
122
1.0
132
0.0
 79
     0
146
0.0
  0
ENDTAB
  0
TABLE
  2
LTYPE
  5
5
330
0
100
AcDbSymbolTable
 70
     8
  0
LTYPE
  5
14
330
5
100
AcDbSymbolTableRecord
100
AcDbLinetypeTableRecord
  2
ByBlock
 70
     0
  3

 72
    65
 73
     0
 40
0.0
  0
LTYPE
  5
15
330
5
100
AcDbSymbolTableRecord
100
AcDbLinetypeTableRecord
  2
ByLayer
 70
     0
  3

 72
    65
 73
     0
 40
0.0
  0
LTYPE
  5
16
330
5
100
AcDbSymbolTableRecord
100
AcDbLinetypeTableRecord
  2
Continuous
 70
     0
  3
Solid line
 72
    65
 73
     0
 40
0.0
  0
LTYPE
  5
3F
330
5
100
AcDbSymbolTableRecord
100
AcDbLinetypeTableRecord
  2
DASHED
 70
     0
  3
Dashed
 72
    65
 73
     2
 40
15.0
 49
7.0
 74
     0
 49
-8.0
 74
     0
  0
LTYPE
  5
40
330
5
100
AcDbSymbolTableRecord
100
AcDbLinetypeTableRecord
  2
DOTTED
 70
     0
  3
Dotted
 72
    65
 73
     2
 40
1.0
 49
0.0
 74
     0
 49
-1.0
 74
     0
  0
LTYPE
  5
41
330
5
100
AcDbSymbolTableRecord
100
AcDbLinetypeTableRecord
  2
DOT_CENTER
 70
     0
  3
Dot_Center
 72
    65
 73
     4
 40
14.0
 49
12.0
 74
     0
 49
-1.0
 74
     0
 49
0.0
 74
     0
 49
-1.0
 74
     0
  0
LTYPE
  5
42
330
5
100
AcDbSymbolTableRecord
100
AcDbLinetypeTableRecord
  2
LONG_DASHED
 70
     0
  3
Long_Dashed
 72
    65
 73
     2
 40
15.0
 49
10.0
 74
     0
 49
-5.0
 74
     0
  0
LTYPE
  5
43
330
5
100
AcDbSymbolTableRecord
100
AcDbLinetypeTableRecord
  2
DASH_CENTER
 70
     0
  3
Dash_Center
 72
    65
 73
     4
 40
14.0
 49
11.0
 74
     0
 49
-1.0
 74
     0
 49
1.0
 74
     0
 49
-1.0
 74
     0
  0
LTYPE
  5
44
330
5
100
AcDbSymbolTableRecord
100
AcDbLinetypeTableRecord
  2
PHANTOM
 70
     0
  3
Phantom
 72
    65
 73
     6
 40
13.0
 49
10.0
 74
     0
 49
-1.0
 74
     0
 49
0.0
 74
     0
 49
-1.0
 74
     0
 49
0.0
 74
     0
 49
-1.0
 74
     0
  0
LTYPE
  5
45
330
5
100
AcDbSymbolTableRecord
100
AcDbLinetypeTableRecord
  2
CENTER_DASH_DASH
 70
     0
  3
Center_Dash_Dash
 72
    65
 73
     6
 40
14.0
 49
9.0
 74
     0
 49
-1.0
 74
     0
 49
1.0
 74
     0
 49
-1.0
 74
     0
 49
1.0
 74
     0
 49
-1.0
 74
     0
  0
ENDTAB
  0
TABLE
  2
LAYER
  5
2
330
0
100
AcDbSymbolTable
 70
     4
  0
LAYER
  5
10
330
2
100
AcDbSymbolTableRecord
100
AcDbLayerTableRecord
  2
0
 70
     0
 62
     7
  6
Continuous
370
    -3
390
F
  0
LAYER
  5
46
330
2
100
AcDbSymbolTableRecord
100
AcDbLayerTableRecord
  2
1
 70
     0
 62
     7
  6
Continuous
370
    -3
390
F
  0
LAYER
  5
47
330
2
100
AcDbSymbolTableRecord
100
AcDbLayerTableRecord
  2
Gewinde_TC_020513_DIN_
 70
     0
 62
     7
  6
Continuous
370
    -3
390
F
  0
LAYER
  5
48
330
2
100
AcDbSymbolTableRecord
100
AcDbLayerTableRecord
  2
Sichtbare_Kanten_TC_020513_DIN_
 70
     0
 62
     7
  6
Continuous
370
    -3
390
F
  0
ENDTAB
  0
TABLE
  2
STYLE
  5
3
330
0
100
AcDbSymbolTable
 70
     4
  0
STYLE
  5
11
330
3
100
AcDbSymbolTableRecord
100
AcDbTextStyleTableRecord
  2
Standard
 70
     0
 40
0.0
 41
1.0
 50
0.0
 71
     0
 42
0.2
  3
txt
  4

  0
STYLE
  5
9D
330
3
100
AcDbSymbolTableRecord
100
AcDbTextStyleTableRecord
  2
CONVERTER_11
 70
     0
 40
0.0
 41
1.38
 50
0.0
 71
     0
 42
0.2
  3
ARIAL.TTF
  4

  0
STYLE
  5
9F
330
3
100
AcDbSymbolTableRecord
100
AcDbTextStyleTableRecord
  2
CONVERTER_12
 70
     0
 40
0.0
 41
1.2
 50
0.0
 71
     0
 42
0.2
  3
ARIAL.TTF
  4

  0
STYLE
  5
937
330
3
100
AcDbSymbolTableRecord
100
AcDbTextStyleTableRecord
  2
CONVERTER_13
 70
     0
 40
0.0
 41
0.95
 50
0.0
 71
     0
 42
0.2
  3
simplex.shx
  4

  0
ENDTAB
  0
TABLE
  2
VIEW
  5
6
330
0
100
AcDbSymbolTable
 70
     0
  0
ENDTAB
  0
TABLE
  2
UCS
  5
7
330
0
100
AcDbSymbolTable
 70
     0
  0
ENDTAB
  0
TABLE
  2
APPID
  5
9
330
0
100
AcDbSymbolTable
 70
     1
  0
APPID
  5
12
330
9
100
AcDbSymbolTableRecord
100
AcDbRegAppTableRecord
  2
ACAD
 70
     0
  0
ENDTAB
  0
TABLE
  2
DIMSTYLE
  5
A
330
0
100
AcDbSymbolTable
 70
     8
100
AcDbDimStyleTable
  0
DIMSTYLE
105
27
330
A
100
AcDbSymbolTableRecord
100
AcDbDimStyleTableRecord
  2
Standard
 70
     0
178
     0
340
11
  0
DIMSTYLE
105
93B
102
{ACAD_REACTORS
330
93C
102
}
330
A
100
AcDbSymbolTableRecord
100
AcDbDimStyleTableRecord
  2
ME10_DIM_10
 70
     0
 41
3.0
 42
0.5
 44
1.0
 73
     0
 74
     0
 77
     1
 78
     8
140
3.0
147
2.0
172
     1
173
     1
174
     1
175
     1
176
     2
177
     2
271
     2
178
     4
271
     2
340
937
  0
DIMSTYLE
105
946
102
{ACAD_REACTORS
330
947
102
}
330
A
100
AcDbSymbolTableRecord
100
AcDbDimStyleTableRecord
  2
ME10_DIM_11
 70
     0
 41
3.0
 42
0.5
 44
1.0
 73
     0
 74
     0
 77
     1
 78
     8
140
3.0
147
2.0
172
     1
173
     1
174
     1
175
     1
176
     2
177
     2
271
     2
178
     4
271
     2
340
937
  0
DIMSTYLE
105
951
102
{ACAD_REACTORS
330
952
102
}
330
A
100
AcDbSymbolTableRecord
100
AcDbDimStyleTableRecord
  2
ME10_DIM_12
 70
     0
 41
3.0
 42
0.5
 44
1.0
 73
     0
 74
     0
 77
     1
 78
     8
140
3.0
147
2.0
172
     1
173
     1
174
     1
175
     1
176
     2
177
     2
271
     2
178
     4
271
     2
340
937
  0
DIMSTYLE
105
95E
102
{ACAD_REACTORS
330
95F
102
}
330
A
100
AcDbSymbolTableRecord
100
AcDbDimStyleTableRecord
  2
ME10_DIM_13
 70
     0
 41
3.0
 42
0.5
 44
1.0
 73
     0
 74
     0
 77
     1
 78
     8
140
3.0
147
2.0
172
     1
173
     1
174
     1
175
     1
176
     2
177
     2
271
     2
178
     4
271
     2
340
937
  0
DIMSTYLE
105
969
102
{ACAD_REACTORS
330
96A
102
}
330
A
100
AcDbSymbolTableRecord
100
AcDbDimStyleTableRecord
  2
ME10_DIM_14
 70
     0
 41
3.0
 42
0.5
 44
1.0
 73
     0
 74
     0
 77
     1
 78
     8
140
3.0
147
2.0
172
     1
173
     1
174
     1
175
     1
176
     2
177
     2
271
     2
178
     4
271
     2
340
937
  0
DIMSTYLE
105
974
102
{ACAD_REACTORS
330
975
102
}
330
A
100
AcDbSymbolTableRecord
100
AcDbDimStyleTableRecord
  2
ME10_DIM_15
 70
     0
 41
3.0
 42
0.5
 44
1.0
 73
     0
 74
     0
 77
     1
 78
     8
140
3.0
147
2.0
172
     1
173
     1
174
     1
175
     1
176
     2
177
     2
271
     2
178
     4
271
     2
340
937
  0
DIMSTYLE
105
97F
102
{ACAD_REACTORS
330
980
102
}
330
A
100
AcDbSymbolTableRecord
100
AcDbDimStyleTableRecord
  2
ME10_DIM_16
 70
     0
 41
3.0
 42
0.5
 44
1.0
 73
     0
 74
     0
 77
     1
 78
     8
140
3.0
147
2.0
172
     1
173
     1
174
     1
175
     1
176
     2
177
     2
271
     2
178
     4
271
     2
340
937
  0
ENDTAB
  0
TABLE
  2
BLOCK_RECORD
  5
1
330
0
100
AcDbSymbolTable
 70
    10
  0
BLOCK_RECORD
  5
1F
330
1
100
AcDbSymbolTableRecord
100
AcDbBlockTableRecord
  2
*Model_Space
340
22
  0
BLOCK_RECORD
  5
1B
330
1
100
AcDbSymbolTableRecord
100
AcDbBlockTableRecord
  2
*Paper_Space
340
1E
  0
BLOCK_RECORD
  5
23
330
1
100
AcDbSymbolTableRecord
100
AcDbBlockTableRecord
  2
*Paper_Space0
340
26
  0
BLOCK_RECORD
  5
49
330
1
100
AcDbSymbolTableRecord
100
AcDbBlockTableRecord
  2
_formato_A4
340
0
102
{BLKREFS
331
4D
102
}
  0
BLOCK_RECORD
  5
4C
330
1
100
AcDbSymbolTableRecord
100
AcDbBlockTableRecord
  2
A4
340
0
102
{BLKREFS
331
50
102
}
  0
BLOCK_RECORD
  5
931
330
1
100
AcDbSymbolTableRecord
100
AcDbBlockTableRecord
  2
*D3
340
0
  0
BLOCK_RECORD
  5
93D
330
1
100
AcDbSymbolTableRecord
100
AcDbBlockTableRecord
  2
*D4
340
0
  0
BLOCK_RECORD
  5
948
330
1
100
AcDbSymbolTableRecord
100
AcDbBlockTableRecord
  2
*D5
340
0
  0
BLOCK_RECORD
  5
953
330
1
100
AcDbSymbolTableRecord
100
AcDbBlockTableRecord
  2
*D6
340
0
  0
BLOCK_RECORD
  5
960
330
1
100
AcDbSymbolTableRecord
100
AcDbBlockTableRecord
  2
*D7
340
0
  0
BLOCK_RECORD
  5
96B
330
1
100
AcDbSymbolTableRecord
100
AcDbBlockTableRecord
  2
*D8
340
0
  0
BLOCK_RECORD
  5
976
330
1
100
AcDbSymbolTableRecord
100
AcDbBlockTableRecord
  2
*D9
340
0
  0
ENDTAB
  0
ENDSEC
  0
SECTION
  2
BLOCKS
  0
BLOCK
  5
20
330
1F
100
AcDbEntity
  8
0
100
AcDbBlockBegin
  2
*Model_Space
 70
     0
 10
0.0
 20
0.0
 30
0.0
  3
*Model_Space
  1

  0
ENDBLK
  5
21
330
1F
100
AcDbEntity
  8
0
100
AcDbBlockEnd
  0
BLOCK
  5
1C
330
1B
100
AcDbEntity
 67
     1
  8
0
100
AcDbBlockBegin
  2
*Paper_Space
 70
     0
 10
0.0
 20
0.0
 30
0.0
  3
*Paper_Space
  1

  0
ENDBLK
  5
1D
330
1B
100
AcDbEntity
 67
     1
  8
0
100
AcDbBlockEnd
  0
BLOCK
  5
24
330
23
100
AcDbEntity
  8
0
100
AcDbBlockBegin
  2
*Paper_Space0
 70
     0
 10
0.0
 20
0.0
 30
0.0
  3
*Paper_Space0
  1

  0
ENDBLK
  5
25
330
23
100
AcDbEntity
  8
0
100
AcDbBlockEnd
  0
BLOCK
  5
4A
330
49
100
AcDbEntity
  8
0
100
AcDbBlockBegin
  2
_formato_A4
 70
     0
 10
210.0
 20
0.0
 30
0.0
  3
_formato_A4
  1

  0
LINE
  5
51
330
49
100
AcDbEntity
  8
1
  6
Continuous
 62
     7
100
AcDbLine
 10
21.0
 20
14.99999999999989
 30
0.0
 11
51.0
 21
14.99999999999989
 31
0.0
  0
LINE
  5
52
330
49
100
AcDbEntity
  8
1
  6
Continuous
 62
     7
100
AcDbLine
 10
21.0
 20
20.0
 30
0.0
 11
21.0
 21
4.99999999999989
 31
0.0
  0
LINE
  5
53
330
49
100
AcDbEntity
  8
1
  6
Continuous
 62
     7
100
AcDbLine
 10
161.0
 20
20.0
 30
0.0
 11
161.0
 21
5.0
 31
0.0
  0
LINE
  5
54
330
49
100
AcDbEntity
  8
1
  6
Continuous
 62
     7
100
AcDbLine
 10
178.3526013774854
 20
20.0
 30
0.0
 11
178.3526013774854
 21
5.0
 31
0.0
  0
LINE
  5
55
330
49
100
AcDbEntity
  8
1
  6
Continuous
 62
     7
100
AcDbLine
 10
51.0
 20
20.0
 30
0.0
 11
51.0
 21
5.0
 31
0.0
  0
LINE
  5
56
330
49
100
AcDbEntity
  8
1
  6
Continuous
 62
     7
100
AcDbLine
 10
21.0
 20
9.99999999999986
 30
0.0
 11
51.0
 21
9.99999999999986
 31
0.0
  0
LINE
  5
57
330
49
100
AcDbEntity
  8
1
  6
Continuous
 62
     7
100
AcDbLine
 10
-0.00000000000011
 20
148.4999999999998
 30
0.0
 11
14.99999999999989
 21
148.4999999999998
 31
0.0
  0
LINE
  5
58
330
49
100
AcDbEntity
  8
1
  6
Continuous
 62
     7
100
AcDbLine
 10
210.0
 20
0.0
 30
0.0
 11
210.0
 21
297.0000000000001
 31
0.0
  0
LINE
  5
59
330
49
100
AcDbEntity
  8
1
  6
Continuous
 62
     7
100
AcDbLine
 10
-0.00000000000011
 20
0.0
 30
0.0
 11
210.0
 21
0.0
 31
0.0
  0
LINE
  5
5A
330
49
100
AcDbEntity
  8
1
  6
Continuous
 62
     7
100
AcDbLine
 10
-0.00000000000011
 20
297.0000000000001
 30
0.0
 11
-0.00000000000011
 21
0.0
 31
0.0
  0
LINE
  5
5B
330
49
100
AcDbEntity
  8
1
  6
Continuous
 62
     7
100
AcDbLine
 10
210.0
 20
297.0000000000001
 30
0.0
 11
-0.00000000000011
 21
297.0000000000001
 31
0.0
  0
LINE
  5
5C
330
49
100
AcDbEntity
  8
1
  6
Continuous
 62
     7
100
AcDbLine
 10
205.0
 20
4.99999999999989
 30
0.0
 11
205.0
 21
292.0000000000001
 31
0.0
  0
LINE
  5
5D
330
49
100
AcDbEntity
  8
1
  6
Continuous
 62
     7
100
AcDbLine
 10
205.0
 20
292.0000000000001
 30
0.0
 11
21.0
 21
292.0000000000001
 31
0.0
  0
LINE
  5
5E
330
49
100
AcDbEntity
  8
1
  6
Continuous
 62
     7
100
AcDbLine
 10
21.0
 20
292.0000000000001
 30
0.0
 11
21.0
 21
4.99999999999989
 31
0.0
  0
LINE
  5
5F
102
{ACAD_REACTORS
330
A7
102
}
330
49
100
AcDbEntity
  8
1
  6
Continuous
 62
     7
100
AcDbLine
 10
194.0096340220761
 20
10.07749983983263
 30
0.0
 11
194.0096340220761
 21
14.92250016016737
 31
0.0
  0
LINE
  5
60
102
{ACAD_REACTORS
330
A4
102
}
330
49
100
AcDbEntity
  8
1
  6
Continuous
 62
     7
100
AcDbLine
 10
192.6763006887427
 20
12.5
 30
0.0
 11
192.6763006887427
 21
14.23205080756884
 31
0.0
  0
LINE
  5
61
102
{ACAD_REACTORS
330
A4
102
}
330
49
100
AcDbEntity
  8
1
  6
Continuous
 62
     7
100
AcDbLine
 10
192.6763006887427
 20
14.23205080756884
 30
0.0
 11
191.8206382560401
 21
12.75
 31
0.0
  0
LINE
  5
62
102
{ACAD_REACTORS
330
A4
102
}
330
49
100
AcDbEntity
  8
1
  6
Continuous
 62
     7
100
AcDbLine
 10
191.5319631214452
 20
12.75
 30
0.0
 11
190.6763006887427
 21
14.23205080756884
 31
0.0
  0
LINE
  5
63
102
{ACAD_REACTORS
330
A4
102
}
330
49
100
AcDbEntity
  8
1
  6
Continuous
 62
     7
100
AcDbLine
 10
190.6763006887427
 20
14.23205080756884
 30
0.0
 11
190.6763006887427
 21
12.5
 31
0.0
  0
LINE
  5
64
330
49
100
AcDbEntity
  8
1
  6
Continuous
 62
     7
100
AcDbLine
 10
183.2598654136011
 20
12.64436426434133
 30
0.0
 11
191.6763006887427
 21
17.5
 31
0.0
  0
LINE
  5
65
330
49
100
AcDbEntity
  8
1
  6
Continuous
 62
     7
100
AcDbLine
 10
191.6763006887427
 20
17.5
 30
0.0
 11
200.0927359638841
 21
12.64436426434133
 31
0.0
  0
LINE
  5
66
330
49
100
AcDbEntity
  8
1
  6
Continuous
 62
     7
100
AcDbLine
 10
200.0927359638841
 20
12.35563573565855
 30
0.0
 11
191.6763006887427
 21
7.5
 31
0.0
  0
LINE
  5
67
330
49
100
AcDbEntity
  8
1
  6
Continuous
 62
     7
100
AcDbLine
 10
191.6763006887427
 20
7.5
 30
0.0
 11
183.2598654136011
 21
12.35563573565855
 31
0.0
  0
LINE
  5
68
102
{ACAD_REACTORS
330
A4
102
}
330
49
100
AcDbEntity
  8
1
  6
Continuous
 62
     7
100
AcDbLine
 10
190.0096340220759
 20
12.5
 30
0.0
 11
190.0096340220759
 21
15.73121731203457
 31
0.0
  0
LINE
  5
69
102
{ACAD_REACTORS
330
A4
102
}
330
49
100
AcDbEntity
  8
1
  6
Continuous
 62
     7
100
AcDbLine
 10
190.5040677056994
 20
15.86370041827229
 30
0.0
 11
191.6763006887427
 21
13.83333333333326
 31
0.0
  0
LINE
  5
6A
102
{ACAD_REACTORS
330
A4
102
}
330
49
100
AcDbEntity
  8
1
  6
Continuous
 62
     7
100
AcDbLine
 10
190.0096340220759
 20
12.5
 30
0.0
 11
190.0096340220759
 21
10.84758507263291
 31
0.0
  0
LINE
  5
6B
102
{ACAD_REACTORS
330
A4
102
}
330
49
100
AcDbEntity
  8
1
  6
Continuous
 62
     7
100
AcDbLine
 10
190.6763006887427
 20
10.84758507263291
 30
0.0
 11
190.6763006887427
 21
12.5
 31
0.0
  0
LINE
  5
6C
102
{ACAD_REACTORS
330
A4
102
}
330
49
100
AcDbEntity
  8
1
  6
Continuous
 62
     7
100
AcDbLine
 10
192.6763006887427
 20
12.5
 30
0.0
 11
192.6763006887427
 21
9.3082690706018
 31
0.0
  0
LINE
  5
6D
102
{ACAD_REACTORS
330
A4
102
}
330
49
100
AcDbEntity
  8
1
  6
Continuous
 62
     7
100
AcDbLine
 10
193.3429673554093
 20
9.3082690706018
 30
0.0
 11
193.3429673554093
 21
15.73121731203457
 31
0.0
  0
LINE
  5
6E
102
{ACAD_REACTORS
330
A4
102
}
330
49
100
AcDbEntity
  8
1
  6
Continuous
 62
     7
100
AcDbLine
 10
192.848533671786
 20
15.86370041827229
 30
0.0
 11
191.6763006887427
 21
13.83333333333326
 31
0.0
  0
LINE
  5
6F
102
{ACAD_REACTORS
330
A5
102
}
330
49
100
AcDbEntity
  8
1
  6
Continuous
 62
     7
100
AcDbLine
 10
188.6763006887427
 20
10.27002114803258
 30
0.0
 11
188.6763006887427
 21
14.92250016016737
 31
0.0
  0
LINE
  5
70
102
{ACAD_REACTORS
330
A5
102
}
330
49
100
AcDbEntity
  8
1
  6
Continuous
 62
     7
100
AcDbLine
 10
189.3429673554093
 20
14.92250016016737
 30
0.0
 11
189.3429673554093
 21
10.2700211480327
 31
0.0
  0
LINE
  5
71
102
{ACAD_REACTORS
330
A5
102
}
330
49
100
AcDbEntity
  8
1
  6
Continuous
 62
     7
100
AcDbLine
 10
189.3429673554093
 20
10.2700211480327
 30
0.0
 11
191.5095415065725
 21
9.0200745223616
 31
0.0
  0
LINE
  5
72
102
{ACAD_REACTORS
330
A5
102
}
330
49
100
AcDbEntity
  8
1
  6
Continuous
 62
     7
100
AcDbLine
 10
191.1763932042461
 20
8.44261746499581
 30
0.0
 11
189.009819053083
 21
9.69256409066691
 31
0.0
  0
LINE
  5
73
102
{ACAD_REACTORS
330
A6
102
}
330
49
100
AcDbEntity
  8
1
  6
Continuous
 62
     7
100
AcDbLine
 10
188.0096340220759
 20
14.15326939093666
 30
0.0
 11
188.0096340220759
 21
11.0392519172633
 31
0.0
  0
LINE
  5
74
102
{ACAD_REACTORS
330
A6
102
}
330
49
100
AcDbEntity
  8
1
  6
Continuous
 62
     7
100
AcDbLine
 10
188.0096340220759
 20
11.0392519172633
 30
0.0
 11
188.0096340220759
 21
10.84673060906323
 31
0.0
  0
LINE
  5
75
102
{ACAD_REACTORS
330
A6
102
}
330
49
100
AcDbEntity
  8
1
  6
Continuous
 62
     7
100
AcDbLine
 10
187.3429673554093
 20
10.84673060906323
 30
0.0
 11
187.3429673554093
 21
14.15326939093666
 31
0.0
  0
LINE
  5
76
102
{ACAD_REACTORS
330
A7
102
}
330
49
100
AcDbEntity
  8
1
  6
Continuous
 62
     7
100
AcDbLine
 10
194.5095415065725
 20
15.21122868885027
 30
0.0
 11
195.8428748399058
 21
14.44199791961944
 31
0.0
  0
LINE
  5
77
102
{ACAD_REACTORS
330
A7
102
}
330
49
100
AcDbEntity
  8
1
  6
Continuous
 62
     7
100
AcDbLine
 10
195.5097265375795
 20
13.86454086225376
 30
0.0
 11
194.6763006887427
 21
14.34536346735194
 31
0.0
  0
LINE
  5
78
102
{ACAD_REACTORS
330
A7
102
}
330
49
100
AcDbEntity
  8
1
  6
Continuous
 62
     7
100
AcDbLine
 10
194.6763006887427
 20
14.34536346735194
 30
0.0
 11
194.6763006887427
 21
12.83333333333326
 31
0.0
  0
LINE
  5
79
102
{ACAD_REACTORS
330
A7
102
}
330
49
100
AcDbEntity
  8
1
  6
Continuous
 62
     7
100
AcDbLine
 10
194.6763006887427
 20
12.83333333333326
 30
0.0
 11
195.6763006887427
 21
12.83333333333326
 31
0.0
  0
LINE
  5
7A
102
{ACAD_REACTORS
330
A7
102
}
330
49
100
AcDbEntity
  8
1
  6
Continuous
 62
     7
100
AcDbLine
 10
195.6763006887427
 20
12.16666666666663
 30
0.0
 11
194.6763006887427
 21
12.16666666666663
 31
0.0
  0
LINE
  5
7B
102
{ACAD_REACTORS
330
A7
102
}
330
49
100
AcDbEntity
  8
1
  6
Continuous
 62
     7
100
AcDbLine
 10
194.6763006887427
 20
12.16666666666663
 30
0.0
 11
194.6763006887427
 21
10.65463653264794
 31
0.0
  0
LINE
  5
7C
102
{ACAD_REACTORS
330
A7
102
}
330
49
100
AcDbEntity
  8
1
  6
Continuous
 62
     7
100
AcDbLine
 10
194.6763006887427
 20
10.65463653264794
 30
0.0
 11
195.5097265375795
 21
11.13545913774624
 31
0.0
  0
LINE
  5
7D
102
{ACAD_REACTORS
330
A7
102
}
330
49
100
AcDbEntity
  8
1
  6
Continuous
 62
     7
100
AcDbLine
 10
195.8428748399058
 20
10.55800208038033
 30
0.0
 11
194.5095415065725
 21
9.78877131114973
 31
0.0
  0
LINE
  5
7E
330
49
100
AcDbEntity
  8
1
  6
Continuous
 62
     7
100
AcDbLine
 10
21.0
 20
25.0
 30
0.0
 11
205.0
 21
25.0
 31
0.0
  0
LINE
  5
7F
330
49
100
AcDbEntity
  8
1
  6
Continuous
 62
     7
100
AcDbLine
 10
28.0
 20
20.0
 30
0.0
 11
28.0
 21
25.0
 31
0.0
  0
LINE
  5
80
330
49
100
AcDbEntity
  8
1
  6
Continuous
 62
     7
100
AcDbLine
 10
46.00000000000011
 20
20.0
 30
0.0
 11
46.00000000000011
 21
25.0
 31
0.0
  0
LINE
  5
81
330
49
100
AcDbEntity
  8
1
  6
Continuous
 62
     7
100
AcDbLine
 10
21.0
 20
30.0
 30
0.0
 11
205.0
 21
30.0
 31
0.0
  0
LINE
  5
82
330
49
100
AcDbEntity
  8
1
  6
Continuous
 62
     7
100
AcDbLine
 10
28.0
 20
25.0
 30
0.0
 11
28.0
 21
30.0
 31
0.0
  0
LINE
  5
83
330
49
100
AcDbEntity
  8
1
  6
Continuous
 62
     7
100
AcDbLine
 10
46.00000000000011
 20
25.0
 30
0.0
 11
46.00000000000011
 21
30.0
 31
0.0
  0
LINE
  5
84
330
49
100
AcDbEntity
  8
1
  6
Continuous
 62
     7
100
AcDbLine
 10
21.0
 20
35.0
 30
0.0
 11
205.0
 21
35.0
 31
0.0
  0
LINE
  5
85
330
49
100
AcDbEntity
  8
1
  6
Continuous
 62
     7
100
AcDbLine
 10
28.0
 20
30.0
 30
0.0
 11
28.0
 21
35.0
 31
0.0
  0
LINE
  5
86
330
49
100
AcDbEntity
  8
1
  6
Continuous
 62
     7
100
AcDbLine
 10
46.00000000000011
 20
30.0
 30
0.0
 11
46.00000000000011
 21
35.0
 31
0.0
  0
LINE
  5
87
330
49
100
AcDbEntity
  8
1
  6
Continuous
 62
     7
100
AcDbLine
 10
21.0
 20
40.0
 30
0.0
 11
205.0
 21
40.0
 31
0.0
  0
LINE
  5
88
330
49
100
AcDbEntity
  8
1
  6
Continuous
 62
     7
100
AcDbLine
 10
28.0
 20
35.0
 30
0.0
 11
28.0
 21
40.0
 31
0.0
  0
LINE
  5
89
330
49
100
AcDbEntity
  8
1
  6
Continuous
 62
     7
100
AcDbLine
 10
46.00000000000011
 20
35.0
 30
0.0
 11
46.00000000000011
 21
40.0
 31
0.0
  0
LINE
  5
8A
330
49
100
AcDbEntity
  8
1
  6
Continuous
 62
     7
100
AcDbLine
 10
21.0
 20
4.99999999999989
 30
0.0
 11
205.0
 21
4.99999999999989
 31
0.0
  0
LINE
  5
8B
330
49
100
AcDbEntity
  8
1
  6
Continuous
 62
     7
100
AcDbLine
 10
21.0
 20
20.0
 30
0.0
 11
205.0
 21
20.0
 31
0.0
  0
ARC
  5
8C
102
{ACAD_REACTORS
330
A4
102
}
330
49
100
AcDbEntity
  8
1
  6
Continuous
 62
     7
100
AcDbCircle
 10
190.2746002345513
 20
15.73121731203457
 30
0.0
 40
0.26496621247531
100
AcDbArc
 50
30.00000000001614
 51
180.0
  0
ARC
  5
8D
102
{ACAD_REACTORS
330
A4
102
}
330
49
100
AcDbEntity
  8
1
  6
Continuous
 62
     7
100
AcDbCircle
 10
190.3429673554093
 20
10.84758507263291
 30
0.0
 40
0.3333333333333997
100
AcDbArc
 50
180.0
 51
0.0
  0
ARC
  5
8E
102
{ACAD_REACTORS
330
A4
102
}
330
49
100
AcDbEntity
  8
1
  6
Continuous
 62
     7
100
AcDbCircle
 10
193.0096340220761
 20
9.3082690706018
 30
0.0
 40
0.3333333333333997
100
AcDbArc
 50
180.0
 51
0.0
  0
ARC
  5
8F
102
{ACAD_REACTORS
330
A4
102
}
330
49
100
AcDbEntity
  8
1
  6
Continuous
 62
     7
100
AcDbCircle
 10
193.078001142934
 20
15.73121731203457
 30
0.0
 40
0.2649662124752865
100
AcDbArc
 50
0.0
 51
149.9999999999716
  0
ARC
  5
90
102
{ACAD_REACTORS
330
A5
102
}
330
49
100
AcDbEntity
  8
1
  6
Continuous
 62
     7
100
AcDbCircle
 10
189.0096340220759
 20
14.92250016016737
 30
0.0
 40
0.3333333333333997
100
AcDbArc
 50
0.0
 51
180.0
  0
ARC
  5
91
102
{ACAD_REACTORS
330
A5
102
}
330
49
100
AcDbEntity
  8
1
  6
Continuous
 62
     7
100
AcDbCircle
 10
191.3429673554093
 20
8.7313459936787
 30
0.0
 40
0.3333333333333567
100
AcDbArc
 50
240.0183606311536
 51
60.01836063114937
  0
ARC
  5
92
102
{ACAD_REACTORS
330
A6
102
}
330
49
100
AcDbEntity
  8
1
  6
Continuous
 62
     7
100
AcDbCircle
 10
187.6763006887427
 20
14.15326939093666
 30
0.0
 40
0.3333333333331723
100
AcDbArc
 50
0.0
 51
180.0
  0
ARC
  5
93
102
{ACAD_REACTORS
330
A6
102
}
330
49
100
AcDbEntity
  8
1
  6
Continuous
 62
     7
100
AcDbCircle
 10
187.6763006887427
 20
10.84673060906323
 30
0.0
 40
0.3333333333334281
100
AcDbArc
 50
180.0
 51
0.0
  0
ARC
  5
94
102
{ACAD_REACTORS
330
A7
102
}
330
49
100
AcDbEntity
  8
1
  6
Continuous
 62
     7
100
AcDbCircle
 10
195.6763006887427
 20
14.15326939093666
 30
0.0
 40
0.3333333333333755
100
AcDbArc
 50
240.0183606311498
 51
60.01836063116061
  0
ARC
  5
95
102
{ACAD_REACTORS
330
A7
102
}
330
49
100
AcDbEntity
  8
1
  6
Continuous
 62
     7
100
AcDbCircle
 10
195.6763006887427
 20
12.5
 30
0.0
 40
0.3333333333333695
100
AcDbArc
 50
270.0
 51
90.0
  0
ARC
  5
96
102
{ACAD_REACTORS
330
A7
102
}
330
49
100
AcDbEntity
  8
1
  6
Continuous
 62
     7
100
AcDbCircle
 10
195.6763006887427
 20
10.84673060906323
 30
0.0
 40
0.333333333333303
100
AcDbArc
 50
299.9816393688292
 51
119.9816393688407
  0
ARC
  5
97
102
{ACAD_REACTORS
330
A4
102
}
330
49
100
AcDbEntity
  8
1
  6
Continuous
 62
     7
100
AcDbCircle
 10
191.6763006887427
 20
12.83333333333326
 30
0.0
 40
0.1666666666667336
100
AcDbArc
 50
209.9999999999573
 51
330.0000000000182
  0
ARC
  5
98
102
{ACAD_REACTORS
330
A5
102
}
330
49
100
AcDbEntity
  8
1
  6
Continuous
 62
     7
100
AcDbCircle
 10
189.3429673554093
 20
10.2700211480327
 30
0.0
 40
0.6666666666665719
100
AcDbArc
 50
180.0000000000104
 51
240.0183606311601
  0
ARC
  5
99
330
49
100
AcDbEntity
  8
1
  6
Continuous
 62
     7
100
AcDbCircle
 10
183.3431524891828
 20
12.5
 30
0.0
 40
0.1666666666666407
100
AcDbArc
 50
119.9816393689046
 51
240.0183606311158
  0
ARC
  5
9A
330
49
100
AcDbEntity
  8
1
  6
Continuous
 62
     7
100
AcDbCircle
 10
200.0094488883026
 20
12.5
 30
0.0
 40
0.1666666666666444
100
AcDbArc
 50
299.9816393688249
 51
60.01836063115461
  0
ARC
  5
9B
102
{ACAD_REACTORS
330
A7
102
}
330
49
100
AcDbEntity
  8
1
  6
Continuous
 62
     7
100
AcDbCircle
 10
194.3429673554093
 20
14.92250016016737
 30
0.0
 40
0.333333333333374
100
AcDbArc
 50
60.01836063114968
 51
180.0
  0
ARC
  5
9C
102
{ACAD_REACTORS
330
A7
102
}
330
49
100
AcDbEntity
  8
1
  6
Continuous
 62
     7
100
AcDbCircle
 10
194.3429673554093
 20
10.07749983983263
 30
0.0
 40
0.3333333333331723
100
AcDbArc
 50
180.0
 51
299.9816393688503
  0
MTEXT
  5
9E
330
49
100
AcDbEntity
  8
1
 62
     7
100
AcDbMText
 10
36.0
 20
17.49999999999994
 30
0.0
 40
2.5
 41
0.0
 71
     5
 72
     1
  1
dimensions in mm
  7
CONVERTER_11
 73
     1
 44
0.60024009603842
  0
MTEXT
  5
A0
330
49
100
AcDbEntity
  8
1
 62
     7
100
AcDbMText
 10
15.99999999999989
 20
151.4999999999998
 30
0.0
 40
4.0
 41
0.0
 71
     5
 72
     1
  1
Diritti riservati      All rights reserved
  7
CONVERTER_12
 11
0.0
 21
1.0
 31
0.0
 73
     1
 44
1.32052821128451
  0
MTEXT
  5
A1
330
49
100
AcDbEntity
  8
1
 62
     7
100
AcDbMText
 10
22.0
 20
12.49999999999987
 30
0.0
 40
3.0
 41
0.0
 71
     4
 72
     1
  1
Date
  7
CONVERTER_12
 73
     1
 44
1.32052821128451
  0
MTEXT
  5
A2
330
49
100
AcDbEntity
  8
1
 62
     7
100
AcDbMText
 10
22.0
 20
7.49999999999987
 30
0.0
 40
3.0
 41
0.0
 71
     4
 72
     1
  1
Sign.
  7
CONVERTER_12
 73
     1
 44
1.32052821128451
  0
MTEXT
  5
A3
330
49
100
AcDbEntity
  8
1
 62
     7
100
AcDbMText
 10
169.6763006887427
 20
16.26063942075598
 30
0.0
 40
3.0
 41
0.0
 71
     5
 72
     1
  1
Scale
  7
CONVERTER_12
 73
     1
 44
1.32052821128451
  0
HATCH
  5
A4
330
49
100
AcDbEntity
  8
1
  6
Continuous
 62
     7
100
AcDbHatch
 10
0.0
 20
0.0
 30
0.0
210
0.0
220
0.0
230
1.0
  2
SOLID
 70
     1
 71
     1
 91
        1
 92
        1
 93
       16
 72
     2
 10
190.2746002345513
 20
15.73121731203457
 40
0.26496621247531
 50
30.00000000001614
 51
180.0
 73
     1
 72
     1
 10
190.0096340220759
 20
15.73121731203457
 11
190.0096340220759
 21
12.5
 72
     1
 10
190.0096340220759
 20
12.5
 11
190.0096340220759
 21
10.84758507263291
 72
     2
 10
190.3429673554093
 20
10.84758507263291
 40
0.3333333333333997
 50
180.0
 51
360.0
 73
     1
 72
     1
 10
190.6763006887427
 20
10.84758507263291
 11
190.6763006887427
 21
12.5
 72
     1
 10
190.6763006887427
 20
12.5
 11
190.6763006887427
 21
14.23205080756884
 72
     1
 10
190.6763006887427
 20
14.23205080756884
 11
191.5319631214452
 21
12.75
 72
     2
 10
191.6763006887427
 20
12.83333333333326
 40
0.1666666666667336
 50
209.9999999999573
 51
330.0000000000182
 73
     1
 72
     1
 10
191.8206382560401
 20
12.75
 11
192.6763006887427
 21
14.23205080756884
 72
     1
 10
192.6763006887427
 20
14.23205080756884
 11
192.6763006887427
 21
12.5
 72
     1
 10
192.6763006887427
 20
12.5
 11
192.6763006887427
 21
9.308269070601796
 72
     2
 10
193.0096340220761
 20
9.308269070601796
 40
0.3333333333333997
 50
180.0
 51
360.0
 73
     1
 72
     1
 10
193.3429673554093
 20
9.308269070601796
 11
193.3429673554093
 21
15.73121731203457
 72
     2
 10
193.078001142934
 20
15.73121731203457
 40
0.2649662124752865
 50
0.0
 51
149.9999999999716
 73
     1
 72
     1
 10
192.848533671786
 20
15.86370041827229
 11
191.6763006887427
 21
13.83333333333326
 72
     1
 10
191.6763006887427
 20
13.83333333333326
 11
190.5040677056994
 21
15.86370041827229
 97
       16
330
6E
330
8F
330
6D
330
8E
330
6C
330
60
330
61
330
97
330
62
330
63
330
6B
330
8D
330
6A
330
68
330
8C
330
69
 75
     0
 76
     1
 98
        1
 10
0.0
 20
0.0
  0
HATCH
  5
A5
330
49
100
AcDbEntity
  8
1
  6
Continuous
 62
     7
100
AcDbHatch
 10
0.0
 20
0.0
 30
0.0
210
0.0
220
0.0
230
1.0
  2
SOLID
 70
     1
 71
     1
 91
        1
 92
        1
 93
        7
 72
     1
 10
189.3429673554093
 20
14.92250016016737
 11
189.3429673554093
 21
10.2700211480327
 72
     1
 10
189.3429673554093
 20
10.2700211480327
 11
191.5095415065725
 21
9.020074522361597
 72
     2
 10
191.3429673554093
 20
8.731345993678701
 40
0.3333333333333567
 50
299.9816393688506
 51
479.9816393688463
 73
     0
 72
     1
 10
191.1763932042461
 20
8.442617464995806
 11
189.009819053083
 21
9.692564090666906
 72
     2
 10
189.3429673554093
 20
10.2700211480327
 40
0.6666666666665719
 50
119.9816393688399
 51
179.9999999999896
 73
     0
 72
     1
 10
188.6763006887427
 20
10.27002114803258
 11
188.6763006887427
 21
14.92250016016737
 72
     2
 10
189.0096340220759
 20
14.92250016016737
 40
0.3333333333333997
 50
180.0
 51
360.0
 73
     0
 97
        7
330
70
330
71
330
91
330
72
330
98
330
6F
330
90
 75
     0
 76
     1
 98
        1
 10
0.0
 20
0.0
  0
HATCH
  5
A6
330
49
100
AcDbEntity
  8
1
  6
Continuous
 62
     7
100
AcDbHatch
 10
0.0
 20
0.0
 30
0.0
210
0.0
220
0.0
230
1.0
  2
SOLID
 70
     1
 71
     1
 91
        1
 92
        1
 93
        5
 72
     1
 10
188.0096340220759
 20
14.15326939093666
 11
188.0096340220759
 21
11.0392519172633
 72
     1
 10
188.0096340220759
 20
11.0392519172633
 11
188.0096340220759
 21
10.84673060906323
 72
     2
 10
187.6763006887427
 20
10.84673060906323
 40
0.3333333333334281
 50
0.0
 51
180.0
 73
     0
 72
     1
 10
187.3429673554093
 20
10.84673060906323
 11
187.3429673554093
 21
14.15326939093666
 72
     2
 10
187.6763006887427
 20
14.15326939093666
 40
0.3333333333331723
 50
180.0
 51
360.0
 73
     0
 97
        5
330
73
330
74
330
93
330
75
330
92
 75
     0
 76
     1
 98
        1
 10
0.0
 20
0.0
  0
HATCH
  5
A7
330
49
100
AcDbEntity
  8
1
  6
Continuous
 62
     7
100
AcDbHatch
 10
0.0
 20
0.0
 30
0.0
210
0.0
220
0.0
230
1.0
  2
SOLID
 70
     1
 71
     1
 91
        1
 92
        1
 93
       14
 72
     1
 10
195.5097265375795
 20
13.86454086225376
 11
194.6763006887427
 21
14.34536346735194
 72
     1
 10
194.6763006887427
 20
14.34536346735194
 11
194.6763006887427
 21
12.83333333333326
 72
     1
 10
194.6763006887427
 20
12.83333333333326
 11
195.6763006887427
 21
12.83333333333326
 72
     2
 10
195.6763006887427
 20
12.5
 40
0.3333333333333695
 50
270.0
 51
450.0
 73
     0
 72
     1
 10
195.6763006887427
 20
12.16666666666663
 11
194.6763006887427
 21
12.16666666666663
 72
     1
 10
194.6763006887427
 20
12.16666666666663
 11
194.6763006887427
 21
10.65463653264794
 72
     1
 10
194.6763006887427
 20
10.65463653264794
 11
195.5097265375795
 21
11.13545913774624
 72
     2
 10
195.6763006887427
 20
10.84673060906323
 40
0.333333333333303
 50
240.0183606311593
 51
420.0183606311708
 73
     0
 72
     1
 10
195.8428748399058
 20
10.55800208038033
 11
194.5095415065725
 21
9.78877131114973
 72
     2
 10
194.3429673554093
 20
10.07749983983263
 40
0.3333333333331723
 50
60.01836063114969
 51
180.0
 73
     0
 72
     1
 10
194.0096340220761
 20
10.07749983983263
 11
194.0096340220761
 21
14.92250016016737
 72
     2
 10
194.3429673554093
 20
14.92250016016737
 40
0.333333333333374
 50
180.0
 51
299.9816393688503
 73
     0
 72
     1
 10
194.5095415065725
 20
15.21122868885027
 11
195.8428748399058
 21
14.44199791961944
 72
     2
 10
195.6763006887427
 20
14.15326939093666
 40
0.3333333333333755
 50
299.9816393688394
 51
479.9816393688502
 73
     0
 97
       14
330
76
330
9B
330
5F
330
9C
330
7D
330
96
330
7C
330
7B
330
7A
330
95
330
79
330
78
330
77
330
94
 75
     0
 76
     1
 98
        1
 10
0.0
 20
0.0
  0
ENDBLK
  5
4B
330
49
100
AcDbEntity
  8
0
100
AcDbBlockEnd
  0
BLOCK
  5
4E
330
4C
100
AcDbEntity
  8
0
100
AcDbBlockBegin
  2
A4
 70
     0
 10
210.0
 20
0.0
 30
0.0
  3
A4
  1

  0
INSERT
  5
4D
330
4C
100
AcDbEntity
  8
1
100
AcDbBlockReference
  2
_formato_A4
 10
210.0
 20
0.0
 30
0.0
  0
ENDBLK
  5
4F
330
4C
100
AcDbEntity
  8
0
100
AcDbBlockEnd
  0
BLOCK
  5
939
330
931
100
AcDbEntity
  8
0
100
AcDbBlockBegin
  2
*D3
 70
     1
 10
0.0
 20
0.0
 30
0.0
  3
*D3
  1

  0
LINE
  5
932
330
931
100
AcDbEntity
  8
1
  6
Continuous
 62
     2
100
AcDbLine
 10
127.177517506914
 20
113.9339825342501
 30
0.0
 11
127.177517506914
 21
86.93398253424975
 31
0.0
  0
LINE
  5
933
330
931
100
AcDbEntity
  8
1
  6
Continuous
 62
     2
100
AcDbLine
 10
114.0777815602514
 20
86.93398253424975
 30
0.0
 11
128.177517506914
 21
86.93398253424975
 31
0.0
  0
LINE
  5
934
330
931
100
AcDbEntity
  8
1
  6
Continuous
 62
     2
100
AcDbLine
 10
114.0777815602514
 20
113.9339825342501
 30
0.0
 11
128.177517506914
 21
113.9339825342501
 31
0.0
  0
SOLID
  5
935
330
931
100
AcDbEntity
  8
1
 62
     2
100
AcDbTrace
 10
127.5724749996762
 20
110.9339825342501
 30
0.0
 11
126.7825600141518
 21
110.9339825342501
 31
0.0
 12
127.177517506914
 22
113.9339825342501
 32
0.0
 13
127.177517506914
 23
113.9339825342501
 33
0.0
  0
SOLID
  5
936
330
931
100
AcDbEntity
  8
1
 62
     2
100
AcDbTrace
 10
126.7825600141518
 20
89.93398253424975
 30
0.0
 11
127.5724749996762
 21
89.93398253424975
 31
0.0
 12
127.177517506914
 22
86.93398253424975
 32
0.0
 13
127.177517506914
 23
86.93398253424975
 33
0.0
  0
MTEXT
  5
938
330
931
100
AcDbEntity
  8
1
 62
     4
100
AcDbMText
 10
125.177517506914
 20
98.1839825342499
 30
0.0
 40
3.0
 41
0.0
 71
     7
 72
     1
  1
27
  7
CONVERTER_13
 11
0.0
 21
1.0
 31
0.0
 73
     1
 44
0.60024009603842
  0
ENDBLK
  5
93A
330
931
100
AcDbEntity
  8
0
100
AcDbBlockEnd
  0
BLOCK
  5
944
330
93D
100
AcDbEntity
  8
0
100
AcDbBlockBegin
  2
*D4
 70
     1
 10
0.0
 20
0.0
 30
0.0
  3
*D4
  1

  0
LINE
  5
93E
330
93D
100
AcDbEntity
  8
1
  6
Continuous
 62
     2
100
AcDbLine
 10
127.177517506914
 20
252.586965018681
 30
0.0
 11
127.177517506914
 21
218.586965018681
 31
0.0
  0
LINE
  5
93F
330
93D
100
AcDbEntity
  8
1
  6
Continuous
 62
     2
100
AcDbLine
 10
109.577781560407
 20
218.586965018681
 30
0.0
 11
128.177517506914
 21
218.586965018681
 31
0.0
  0
LINE
  5
940
330
93D
100
AcDbEntity
  8
1
  6
Continuous
 62
     2
100
AcDbLine
 10
109.577781560407
 20
252.586965018681
 30
0.0
 11
128.177517506914
 21
252.586965018681
 31
0.0
  0
SOLID
  5
941
330
93D
100
AcDbEntity
  8
1
 62
     2
100
AcDbTrace
 10
127.5724749996762
 20
249.586965018681
 30
0.0
 11
126.7825600141518
 21
249.586965018681
 31
0.0
 12
127.177517506914
 22
252.586965018681
 32
0.0
 13
127.177517506914
 23
252.586965018681
 33
0.0
  0
SOLID
  5
942
330
93D
100
AcDbEntity
  8
1
 62
     2
100
AcDbTrace
 10
126.7825600141518
 20
221.586965018681
 30
0.0
 11
127.5724749996762
 21
221.586965018681
 31
0.0
 12
127.177517506914
 22
218.586965018681
 32
0.0
 13
127.177517506914
 23
218.586965018681
 33
0.0
  0
MTEXT
  5
943
330
93D
100
AcDbEntity
  8
1
 62
     4
100
AcDbMText
 10
125.177517506914
 20
233.336965018681
 30
0.0
 40
3.0
 41
0.0
 71
     7
 72
     1
  1
34
  7
CONVERTER_13
 11
0.0
 21
1.0
 31
0.0
 73
     1
 44
0.60024009603842
  0
ENDBLK
  5
945
330
93D
100
AcDbEntity
  8
0
100
AcDbBlockEnd
  0
BLOCK
  5
94F
330
948
100
AcDbEntity
  8
0
100
AcDbBlockBegin
  2
*D5
 70
     1
 10
0.0
 20
0.0
 30
0.0
  3
*D5
  1

  0
LINE
  5
949
330
948
100
AcDbEntity
  8
1
  6
Continuous
 62
     2
100
AcDbLine
 10
62.47778156040729
 20
263.575454474838
 30
0.0
 11
112.577781560407
 21
263.575454474838
 31
0.0
  0
LINE
  5
94A
330
948
100
AcDbEntity
  8
1
  6
Continuous
 62
     2
100
AcDbLine
 10
112.577781560407
 20
249.586965018681
 30
0.0
 11
112.577781560407
 21
264.575454474838
 31
0.0
  0
LINE
  5
94B
330
948
100
AcDbEntity
  8
1
  6
Continuous
 62
     2
100
AcDbLine
 10
62.47778156040729
 20
249.586965018681
 30
0.0
 11
62.47778156040729
 21
264.575454474838
 31
0.0
  0
SOLID
  5
94C
330
948
100
AcDbEntity
  8
1
 62
     2
100
AcDbTrace
 10
65.4777815604073
 20
263.9704119676002
 30
0.0
 11
65.4777815604073
 21
263.1804969820759
 31
0.0
 12
62.47778156040729
 22
263.575454474838
 32
0.0
 13
62.47778156040729
 23
263.575454474838
 33
0.0
  0
SOLID
  5
94D
330
948
100
AcDbEntity
  8
1
 62
     2
100
AcDbTrace
 10
109.577781560407
 20
263.1804969820759
 30
0.0
 11
109.577781560407
 21
263.9704119676002
 31
0.0
 12
112.577781560407
 22
263.575454474838
 32
0.0
 13
112.577781560407
 23
263.575454474838
 33
0.0
  0
MTEXT
  5
94E
330
948
100
AcDbEntity
  8
1
 62
     4
100
AcDbMText
 10
85.27778156040715
 20
265.575454474838
 30
0.0
 40
3.0
 41
0.0
 71
     7
 72
     1
  1
50
  7
CONVERTER_13
 11
0.9999999999970619
 21
2.424068405545306E-6
 31
0.0
 73
     1
 44
0.60024009603842
  0
ENDBLK
  5
950
330
948
100
AcDbEntity
  8
0
100
AcDbBlockEnd
  0
BLOCK
  5
95C
330
953
100
AcDbEntity
  8
0
100
AcDbBlockBegin
  2
*D6
 70
     1
 10
0.0
 20
0.0
 30
0.0
  3
*D6
  1

  0
LINE
  5
954
330
953
100
AcDbEntity
  8
1
  6
Continuous
 62
     2
100
AcDbLine
 10
185.850228309424
 20
177.673172065413
 30
0.0
 11
185.850228309424
 21
168.784662489797
 31
0.0
  0
LINE
  5
955
330
953
100
AcDbEntity
  8
1
  6
Continuous
 62
     2
100
AcDbLine
 10
185.850228309424
 20
168.784662489797
 30
0.0
 11
185.850228309424
 21
167.584662489797
 31
0.0
  0
LINE
  5
956
330
953
100
AcDbEntity
  8
1
  6
Continuous
 62
     2
100
AcDbLine
 10
185.850228309424
 20
167.584662489797
 30
0.0
 11
185.850228309424
 21
161.584662489797
 31
0.0
  0
LINE
  5
957
330
953
100
AcDbEntity
  8
1
  6
Continuous
 62
     2
100
AcDbLine
 10
175.558715199129
 20
168.784662489797
 30
0.0
 11
186.850228309424
 21
168.784662489797
 31
0.0
  0
LINE
  5
958
330
953
100
AcDbEntity
  8
1
  6
Continuous
 62
     2
100
AcDbLine
 10
175.558715199128
 20
167.584662489797
 30
0.0
 11
186.850228309424
 21
167.584662489797
 31
0.0
  0
SOLID
  5
959
330
953
100
AcDbEntity
  8
1
 62
     2
100
AcDbTrace
 10
185.4552708166618
 20
171.784662489797
 30
0.0
 11
186.2451858021862
 21
171.784662489797
 31
0.0
 12
185.850228309424
 22
168.784662489797
 32
0.0
 13
185.850228309424
 23
168.784662489797
 33
0.0
  0
SOLID
  5
95A
330
953
100
AcDbEntity
  8
1
 62
     2
100
AcDbTrace
 10
186.2451858021862
 20
164.584662489797
 30
0.0
 11
185.4552708166618
 21
164.584662489797
 31
0.0
 12
185.850228309424
 22
167.584662489797
 32
0.0
 13
185.850228309424
 23
167.584662489797
 33
0.0
  0
MTEXT
  5
95B
330
953
100
AcDbEntity
  8
1
 62
     4
100
AcDbMText
 10
183.550228309424
 20
173.023172065413
 30
0.0
 40
3.0
 41
0.0
 71
     7
 72
     1
  1
1,2
  7
CONVERTER_13
 11
0.0
 21
1.0
 31
0.0
 73
     1
 44
0.60024009603842
  0
ENDBLK
  5
95D
330
953
100
AcDbEntity
  8
0
100
AcDbBlockEnd
  0
BLOCK
  5
967
330
960
100
AcDbEntity
  8
0
100
AcDbBlockBegin
  2
*D7
 70
     1
 10
0.0
 20
0.0
 30
0.0
  3
*D7
  1

  0
LINE
  5
961
330
960
100
AcDbEntity
  8
1
  6
Continuous
 62
     2
100
AcDbLine
 10
185.850228309424
 20
167.584662489797
 30
0.0
 11
185.850228309424
 21
150.584662489797
 31
0.0
  0
LINE
  5
962
330
960
100
AcDbEntity
  8
1
  6
Continuous
 62
     2
100
AcDbLine
 10
169.058715199129
 20
150.584662489797
 30
0.0
 11
186.850228309424
 21
150.584662489797
 31
0.0
  0
LINE
  5
963
330
960
100
AcDbEntity
  8
1
  6
Continuous
 62
     2
100
AcDbLine
 10
175.558715199128
 20
167.584662489797
 30
0.0
 11
186.850228309424
 21
167.584662489797
 31
0.0
  0
SOLID
  5
964
330
960
100
AcDbEntity
  8
1
 62
     2
100
AcDbTrace
 10
186.2451858021862
 20
164.584662489797
 30
0.0
 11
185.4552708166618
 21
164.584662489797
 31
0.0
 12
185.850228309424
 22
167.584662489797
 32
0.0
 13
185.850228309424
 23
167.584662489797
 33
0.0
  0
SOLID
  5
965
330
960
100
AcDbEntity
  8
1
 62
     2
100
AcDbTrace
 10
185.4552708166618
 20
153.584662489797
 30
0.0
 11
186.2451858021862
 21
153.584662489797
 31
0.0
 12
185.850228309424
 22
150.584662489797
 32
0.0
 13
185.850228309424
 23
150.584662489797
 33
0.0
  0
MTEXT
  5
966
330
960
100
AcDbEntity
  8
1
 62
     4
100
AcDbMText
 10
183.850228309424
 20
157.284662489797
 30
0.0
 40
3.0
 41
0.0
 71
     7
 72
     1
  1
17
  7
CONVERTER_13
 11
0.0
 21
1.0
 31
0.0
 73
     1
 44
0.60024009603842
  0
ENDBLK
  5
968
330
960
100
AcDbEntity
  8
0
100
AcDbBlockEnd
  0
BLOCK
  5
972
330
96B
100
AcDbEntity
  8
0
100
AcDbBlockBegin
  2
*D8
 70
     1
 10
0.0
 20
0.0
 30
0.0
  3
*D8
  1

  0
LINE
  5
96C
330
96B
100
AcDbEntity
  8
1
  6
Continuous
 62
     2
100
AcDbLine
 10
133.700251582439
 20
186.584662489797
 30
0.0
 11
133.700251582439
 21
150.584662489797
 31
0.0
  0
LINE
  5
96D
330
96B
100
AcDbEntity
  8
1
  6
Continuous
 62
     2
100
AcDbLine
 10
147.058715199129
 20
150.584662489797
 30
0.0
 11
132.700251582439
 21
150.584662489797
 31
0.0
  0
LINE
  5
96E
330
96B
100
AcDbEntity
  8
1
  6
Continuous
 62
     2
100
AcDbLine
 10
147.558715199129
 20
186.584662489797
 30
0.0
 11
132.700251582439
 21
186.584662489797
 31
0.0
  0
SOLID
  5
96F
330
96B
100
AcDbEntity
  8
1
 62
     2
100
AcDbTrace
 10
134.0952090752012
 20
183.584662489797
 30
0.0
 11
133.3052940896768
 21
183.584662489797
 31
0.0
 12
133.700251582439
 22
186.584662489797
 32
0.0
 13
133.700251582439
 23
186.584662489797
 33
0.0
  0
SOLID
  5
970
330
96B
100
AcDbEntity
  8
1
 62
     2
100
AcDbTrace
 10
133.3052940896768
 20
153.584662489797
 30
0.0
 11
134.0952090752012
 21
153.584662489797
 31
0.0
 12
133.700251582439
 22
150.584662489797
 32
0.0
 13
133.700251582439
 23
150.584662489797
 33
0.0
  0
MTEXT
  5
971
330
96B
100
AcDbEntity
  8
1
 62
     4
100
AcDbMText
 10
131.700251582439
 20
166.334662489797
 30
0.0
 40
3.0
 41
0.0
 71
     7
 72
     1
  1
36
  7
CONVERTER_13
 11
0.0
 21
1.0
 31
0.0
 73
     1
 44
0.60024009603842
  0
ENDBLK
  5
973
330
96B
100
AcDbEntity
  8
0
100
AcDbBlockEnd
  0
BLOCK
  5
97D
330
976
100
AcDbEntity
  8
0
100
AcDbBlockBegin
  2
*D9
 70
     1
 10
0.0
 20
0.0
 30
0.0
  3
*D9
  1

  0
LINE
  5
977
330
976
100
AcDbEntity
  8
1
  6
Continuous
 62
     2
100
AcDbLine
 10
65.5277815602515
 20
68.8890263871056
 30
0.0
 11
109.527781560252
 21
68.8890263871056
 31
0.0
  0
LINE
  5
978
330
976
100
AcDbEntity
  8
1
  6
Continuous
 62
     2
100
AcDbLine
 10
65.5277815602515
 20
82.38398253425025
 30
0.0
 11
65.5277815602515
 21
67.8890263871056
 31
0.0
  0
LINE
  5
979
330
976
100
AcDbEntity
  8
1
  6
Continuous
 62
     2
100
AcDbLine
 10
109.527781560252
 20
82.38398253425025
 30
0.0
 11
109.527781560252
 21
67.8890263871056
 31
0.0
  0
SOLID
  5
97A
330
976
100
AcDbEntity
  8
1
 62
     2
100
AcDbTrace
 10
68.5277815602515
 20
69.28398387986779
 30
0.0
 11
68.5277815602515
 21
68.49406889434341
 31
0.0
 12
65.5277815602515
 22
68.8890263871056
 32
0.0
 13
65.5277815602515
 23
68.8890263871056
 33
0.0
  0
SOLID
  5
97B
330
976
100
AcDbEntity
  8
1
 62
     2
100
AcDbTrace
 10
106.527781560252
 20
68.49406889434341
 30
0.0
 11
106.527781560252
 21
69.28398387986779
 31
0.0
 12
109.527781560252
 22
68.8890263871056
 32
0.0
 13
109.527781560252
 23
68.8890263871056
 33
0.0
  0
MTEXT
  5
97C
330
976
100
AcDbEntity
  8
1
 62
     4
100
AcDbMText
 10
85.27778156025175
 20
70.8890263871056
 30
0.0
 40
3.0
 41
0.0
 71
     7
 72
     1
  1
44
  7
CONVERTER_13
 11
0.9999999999970619
 21
2.424068405545306E-6
 31
0.0
 73
     1
 44
0.60024009603842
  0
ENDBLK
  5
97E
330
976
100
AcDbEntity
  8
0
100
AcDbBlockEnd
  0
ENDSEC
  0
SECTION
  2
ENTITIES
  0
INSERT
  5
50
330
1F
100
AcDbEntity
  8
0
100
AcDbBlockReference
  2
A4
 10
210.0
 20
0.0
 30
0.0
  0
LINE
  5
A8
330
1F
100
AcDbEntity
  8
0
  6
Continuous
 62
     7
100
AcDbLine
 10
108.176435554679
 20
97.8069179552184
 30
0.0
 11
106.629642539923
 21
100.433982534257
 31
0.0
  0
LINE
  5
A9
330
1F
100
AcDbEntity
  8
0
  6
Continuous
 62
     7
100
AcDbLine
 10
105.477781560248
 20
95.4339825342568
 30
0.0
 11
105.477781560249
 21
105.433982534257
 31
0.0
  0
LINE
  5
AA
330
1F
100
AcDbEntity
  8
0
  6
Continuous
 62
     7
100
AcDbLine
 10
108.993176270216
 20
99.9437757789049
 30
0.0
 11
107.498023093683
 21
99.9437757789049
 31
0.0
  0
LINE
  5
AB
330
1F
100
AcDbEntity
  8
0
  6
Continuous
 62
     7
100
AcDbLine
 10
107.735886260291
 20
99.7476930767641
 30
0.0
 11
109.163051712708
 21
99.7476930767641
 31
0.0
  0
LINE
  5
AC
330
1F
100
AcDbEntity
  8
0
  6
Continuous
 62
     7
100
AcDbLine
 10
109.163051712708
 20
99.5516103746233
 30
0.0
 11
107.735886260291
 21
99.5516103746233
 31
0.0
  0
LINE
  5
AD
330
1F
100
AcDbEntity
  8
0
  6
Continuous
 62
     7
100
AcDbLine
 10
107.962135531992
 20
99.3555276724824
 30
0.0
 11
108.993427588505
 21
99.3555276724824
 31
0.0
  0
LINE
  5
AE
330
1F
100
AcDbEntity
  8
0
  6
Continuous
 62
     7
100
AcDbLine
 10
108.993427588505
 20
99.1594449703417
 30
0.0
 11
107.962135531992
 21
99.1594449703417
 31
0.0
  0
LINE
  5
AF
330
1F
100
AcDbEntity
  8
0
  6
Continuous
 62
     7
100
AcDbLine
 10
106.477781560249
 20
106.433982534257
 30
0.0
 11
110.477781560249
 21
106.433982534257
 31
0.0
  0
LINE
  5
B0
330
1F
100
AcDbEntity
  8
0
  6
Continuous
 62
     7
100
AcDbLine
 10
108.348984255814
 20
97.908047115261
 30
0.0
 11
106.86173522014
 21
100.433982534257
 31
0.0
  0
LINE
  5
B1
330
1F
100
AcDbEntity
  8
0
  6
Continuous
 62
     7
100
AcDbLine
 10
106.629642539923
 20
100.433982534257
 30
0.0
 11
108.176435554658
 21
103.06104711326
 31
0.0
  0
LINE
  5
B2
330
1F
100
AcDbEntity
  8
0
  6
Continuous
 62
     7
100
AcDbLine
 10
106.86173522014
 20
100.433982534257
 30
0.0
 11
108.348984255802
 21
102.959917953233
 31
0.0
  0
LINE
  5
B3
330
1F
100
AcDbEntity
  8
0
  6
Continuous
 62
     7
100
AcDbLine
 10
107.459056625494
 20
100.778764450538
 30
0.0
 11
108.056236422023
 21
100.433982534257
 31
0.0
  0
LINE
  5
B4
330
1F
100
AcDbEntity
  8
0
  6
Continuous
 62
     7
100
AcDbLine
 10
108.047057537126
 20
101.561485282602
 30
0.0
 11
107.905636043639
 21
101.316354693891
 31
0.0
  0
LINE
  5
B5
330
1F
100
AcDbEntity
  8
0
  6
Continuous
 62
     7
100
AcDbLine
 10
107.650964255158
 20
101.267306807321
 30
0.0
 11
107.877213526859
 21
101.659472211602
 31
0.0
  0
LINE
  5
B6
330
1F
100
AcDbEntity
  8
0
  6
Continuous
 62
     7
100
AcDbLine
 10
107.938964022415
 20
100.728106587468
 30
0.0
 11
108.374870813002
 21
100.476435684581
 31
0.0
  0
LINE
  5
B7
330
1F
100
AcDbEntity
  8
0
  6
Continuous
 62
     7
100
AcDbLine
 10
108.379740209178
 20
101.316354693891
 30
0.0
 11
108.379740209178
 21
101.610478747102
 31
0.0
  0
LINE
  5
B8
330
1F
100
AcDbEntity
  8
0
  6
Continuous
 62
     7
100
AcDbLine
 10
107.905636043639
 20
101.316354693891
 30
0.0
 11
108.379740209178
 21
101.316354693891
 31
0.0
  0
LINE
  5
B9
330
1F
100
AcDbEntity
  8
0
  6
Continuous
 62
     7
100
AcDbLine
 10
107.459056625494
 20
100.089200617976
 30
0.0
 11
108.056236422023
 21
100.433982534257
 31
0.0
  0
LINE
  5
BA
330
1F
100
AcDbEntity
  8
0
  6
Continuous
 62
     7
100
AcDbLine
 10
108.374870813002
 20
100.391529383933
 30
0.0
 11
107.938964022415
 21
100.139858481046
 31
0.0
  0
LINE
  5
BB
330
1F
100
AcDbEntity
  8
0
  6
Continuous
 62
     7
100
AcDbLine
 10
110.093827900357
 20
100.433982534257
 30
0.0
 11
108.606578864693
 21
97.9080471152776
 31
0.0
  0
LINE
  5
BC
330
1F
100
AcDbEntity
  8
0
  6
Continuous
 62
     7
100
AcDbLine
 10
108.606578864704
 20
102.959917953217
 30
0.0
 11
110.093827900357
 21
100.433982534257
 31
0.0
  0
LINE
  5
BD
330
1F
100
AcDbEntity
  8
0
  6
Continuous
 62
     7
100
AcDbLine
 10
110.325920580575
 20
100.433982534257
 30
0.0
 11
108.779127565835
 21
97.8069179552468
 31
0.0
  0
LINE
  5
BE
330
1F
100
AcDbEntity
  8
0
  6
Continuous
 62
     7
100
AcDbLine
 10
108.779127565855
 20
103.061047113233
 30
0.0
 11
110.325920580575
 21
100.433982534257
 31
0.0
  0
LINE
  5
BF
330
1F
100
AcDbEntity
  8
0
  6
Continuous
 62
     7
100
AcDbLine
 10
109.078349593639
 20
101.659472211602
 30
0.0
 11
109.30459886534
 21
101.267306807321
 31
0.0
  0
LINE
  5
C0
330
1F
100
AcDbEntity
  8
0
  6
Continuous
 62
     7
100
AcDbLine
 10
109.049927076858
 20
101.316354693891
 30
0.0
 11
108.908505583371
 21
101.561485282602
 31
0.0
  0
LINE
  5
C1
330
1F
100
AcDbEntity
  8
0
  6
Continuous
 62
     7
100
AcDbLine
 10
109.163051712708
 20
99.7476930767641
 30
0.0
 11
109.530691080548
 21
100.384934647687
 31
0.0
  0
LINE
  5
C2
330
1F
100
AcDbEntity
  8
0
  6
Continuous
 62
     7
100
AcDbLine
 10
109.700535090816
 20
100.286947718686
 30
0.0
 11
109.332895722976
 21
99.6497061477634
 31
0.0
  0
LINE
  5
C3
330
1F
100
AcDbEntity
  8
0
  6
Continuous
 62
     7
100
AcDbLine
 10
111.477781560249
 20
105.433982534257
 30
0.0
 11
111.477781560248
 21
95.4339825342568
 31
0.0
  0
LINE
  5
C4
330
1F
100
AcDbEntity
  8
0
  6
Continuous
 62
     7
100
AcDbLine
 10
109.445926131907
 20
100.924189289609
 30
0.0
 11
107.498023093683
 21
100.924189289609
 31
0.0
  0
LINE
  5
C5
330
1F
100
AcDbEntity
  8
0
  6
Continuous
 62
     7
100
AcDbLine
 10
109.445926131907
 20
100.728106587468
 30
0.0
 11
107.938964022415
 21
100.728106587468
 31
0.0
  0
LINE
  5
C6
330
1F
100
AcDbEntity
  8
0
  6
Continuous
 62
     7
100
AcDbLine
 10
108.575822911319
 20
101.316354693891
 30
0.0
 11
109.049927076858
 21
101.316354693891
 31
0.0
  0
LINE
  5
C7
330
1F
100
AcDbEntity
  8
0
  6
Continuous
 62
     7
100
AcDbLine
 10
108.575822911319
 20
101.610478747102
 30
0.0
 11
108.575822911319
 21
101.316354693891
 31
0.0
  0
LINE
  5
C8
330
1F
100
AcDbEntity
  8
0
  6
Continuous
 62
     7
100
AcDbLine
 10
109.219676860206
 20
101.12027199175
 30
0.0
 11
107.735886260291
 21
101.12027199175
 31
0.0
  0
LINE
  5
C9
330
1F
100
AcDbEntity
  8
0
  6
Continuous
 62
     7
100
AcDbLine
 10
107.938964022415
 20
100.139858481046
 30
0.0
 11
108.993176270216
 21
100.139858481046
 31
0.0
  0
LINE
  5
CA
330
1F
100
AcDbEntity
  8
0
  6
Continuous
 62
     7
100
AcDbLine
 10
110.477781560248
 20
94.4339825342568
 30
0.0
 11
106.477781560248
 21
94.4339825342568
 31
0.0
  0
LINE
  5
CB
330
1F
100
AcDbEntity
  8
0
  6
Continuous
 62
     7
100
AcDbLine
 10
69.52778156024786
 20
105.433982534257
 30
0.0
 11
69.52778156024769
 21
95.4339825342574
 31
0.0
  0
LINE
  5
CC
330
1F
100
AcDbEntity
  8
0
  6
Continuous
 62
     7
100
AcDbLine
 10
68.52778156024769
 20
94.4339825342574
 30
0.0
 11
64.52778156024769
 21
94.4339825342575
 31
0.0
  0
LINE
  5
CD
330
1F
100
AcDbEntity
  8
0
  6
Continuous
 62
     7
100
AcDbLine
 10
63.52778156024769
 20
95.4339825342575
 30
0.0
 11
63.52778156024786
 21
105.433982534258
 31
0.0
  0
LINE
  5
CE
330
1F
100
AcDbEntity
  8
0
  6
Continuous
 62
     7
100
AcDbLine
 10
64.52778156024786
 20
106.433982534258
 30
0.0
 11
68.52778156024786
 21
106.433982534257
 31
0.0
  0
LINE
  5
CF
330
1F
100
AcDbEntity
  8
Sichtbare_Kanten_TC_020513_DIN_
  6
Continuous
 62
     7
100
AcDbLine
 10
68.2777815603296
 20
170.784662489797
 30
0.0
 11
106.77778156033
 21
170.784662489797
 31
0.0
  0
LINE
  5
D0
330
1F
100
AcDbEntity
  8
Sichtbare_Kanten_TC_020513_DIN_
  6
Continuous
 62
     7
100
AcDbLine
 10
68.5277815603296
 20
170.784662489797
 30
0.0
 11
68.5277815603296
 21
168.784662489797
 31
0.0
  0
LINE
  5
D1
330
1F
100
AcDbEntity
  8
Sichtbare_Kanten_TC_020513_DIN_
  6
Continuous
 62
     7
100
AcDbLine
 10
106.52778156033
 20
168.784662489797
 30
0.0
 11
106.52778156033
 21
170.784662489797
 31
0.0
  0
LINE
  5
D2
330
1F
100
AcDbEntity
  8
Sichtbare_Kanten_TC_020513_DIN_
  6
Continuous
 62
     7
100
AcDbLine
 10
102.52778156033
 20
157.284662489797
 30
0.0
 11
101.02778156033
 21
157.284662489797
 31
0.0
  0
LINE
  5
D3
330
1F
100
AcDbEntity
  8
Sichtbare_Kanten_TC_020513_DIN_
  6
Continuous
 62
     7
100
AcDbLine
 10
101.02778156033
 20
157.284662489797
 30
0.0
 11
101.02778156033
 21
170.784662489797
 31
0.0
  0
LINE
  5
D4
330
1F
100
AcDbEntity
  8
Sichtbare_Kanten_TC_020513_DIN_
  6
Continuous
 62
     7
100
AcDbLine
 10
74.0277815603296
 20
170.784662489797
 30
0.0
 11
74.0277815603296
 21
157.284662489797
 31
0.0
  0
LINE
  5
D5
330
1F
100
AcDbEntity
  8
Sichtbare_Kanten_TC_020513_DIN_
  6
Continuous
 62
     7
100
AcDbLine
 10
74.0277815603296
 20
157.284662489797
 30
0.0
 11
72.5277815603296
 21
157.284662489797
 31
0.0
  0
LINE
  5
D6
330
1F
100
AcDbEntity
  8
Sichtbare_Kanten_TC_020513_DIN_
  6
Continuous
 62
     7
100
AcDbLine
 10
109.92778156033
 20
170.784662489797
 30
0.0
 11
109.12778156033
 21
170.784662489797
 31
0.0
  0
LINE
  5
D7
330
1F
100
AcDbEntity
  8
Sichtbare_Kanten_TC_020513_DIN_
  6
Continuous
 62
     7
100
AcDbLine
 10
65.9277815603296
 20
170.784662489797
 30
0.0
 11
65.1277815603296
 21
170.784662489797
 31
0.0
  0
LINE
  5
D8
330
1F
100
AcDbEntity
  8
Sichtbare_Kanten_TC_020513_DIN_
  6
Continuous
 62
     7
100
AcDbLine
 10
112.27778156033
 20
170.784662489797
 30
0.0
 11
112.52778156033
 21
170.784662489797
 31
0.0
  0
LINE
  5
D9
330
1F
100
AcDbEntity
  8
Sichtbare_Kanten_TC_020513_DIN_
  6
Continuous
 62
     7
100
AcDbLine
 10
62.5277815603296
 20
170.784662489797
 30
0.0
 11
62.7777815603296
 21
170.784662489797
 31
0.0
  0
LINE
  5
DA
330
1F
100
AcDbEntity
  8
Sichtbare_Kanten_TC_020513_DIN_
  6
Continuous
 62
     7
100
AcDbLine
 10
112.52778156033
 20
168.784662489797
 30
0.0
 11
112.52778156033
 21
170.784662489797
 31
0.0
  0
LINE
  5
DB
330
1F
100
AcDbEntity
  8
Sichtbare_Kanten_TC_020513_DIN_
  6
Continuous
 62
     7
100
AcDbLine
 10
62.5277815603296
 20
170.784662489797
 30
0.0
 11
62.5277815603296
 21
168.784662489797
 31
0.0
  0
LINE
  5
DC
330
1F
100
AcDbEntity
  8
Sichtbare_Kanten_TC_020513_DIN_
  6
Continuous
 62
     7
100
AcDbLine
 10
97.0277815463065
 20
153.584662489797
 30
0.0
 11
97.0277815463065
 21
153.574662489797
 31
0.0
  0
LINE
  5
DD
330
1F
100
AcDbEntity
  8
Sichtbare_Kanten_TC_020513_DIN_
  6
Continuous
 62
     7
100
AcDbLine
 10
97.0277814411203
 20
153.574662022497
 30
0.0
 11
97.0315925621072
 21
153.574662022497
 31
0.0
  0
LINE
  5
DE
330
1F
100
AcDbEntity
  8
Sichtbare_Kanten_TC_020513_DIN_
  6
Continuous
 62
     7
100
AcDbLine
 10
97.031592521973
 20
153.584662489797
 30
0.0
 11
97.031592521973
 21
153.574662489797
 31
0.0
  0
LINE
  5
DF
330
1F
100
AcDbEntity
  8
Sichtbare_Kanten_TC_020513_DIN_
  6
Continuous
 62
     7
100
AcDbLine
 10
97.031592521973
 20
153.574662489797
 30
0.0
 11
98.0315925368742
 21
153.574662489797
 31
0.0
  0
LINE
  5
E0
330
1F
100
AcDbEntity
  8
Sichtbare_Kanten_TC_020513_DIN_
  6
Continuous
 62
     7
100
AcDbLine
 10
97.6794583852855
 20
153.584662489797
 30
0.0
 11
97.6794583852855
 21
153.574662489797
 31
0.0
  0
LINE
  5
E1
330
1F
100
AcDbEntity
  8
Sichtbare_Kanten_TC_020513_DIN_
  6
Continuous
 62
     7
100
AcDbLine
 10
97.7922632650152
 20
153.584662489797
 30
0.0
 11
97.7922632650152
 21
153.574662489797
 31
0.0
  0
LINE
  5
E2
330
1F
100
AcDbEntity
  8
Sichtbare_Kanten_TC_020513_DIN_
  6
Continuous
 62
     7
100
AcDbLine
 10
98.0315925368742
 20
153.584662489797
 30
0.0
 11
98.0315925368742
 21
153.574662489797
 31
0.0
  0
LINE
  5
E3
330
1F
100
AcDbEntity
  8
Sichtbare_Kanten_TC_020513_DIN_
  6
Continuous
 62
     7
100
AcDbLine
 10
77.0277815463065
 20
153.584662489797
 30
0.0
 11
77.0277815463065
 21
153.574662489797
 31
0.0
  0
LINE
  5
E4
330
1F
100
AcDbEntity
  8
Sichtbare_Kanten_TC_020513_DIN_
  6
Continuous
 62
     7
100
AcDbLine
 10
77.0277815463065
 20
153.574662489797
 30
0.0
 11
78.0315925368742
 21
153.574662489797
 31
0.0
  0
LINE
  5
E5
330
1F
100
AcDbEntity
  8
Sichtbare_Kanten_TC_020513_DIN_
  6
Continuous
 62
     7
100
AcDbLine
 10
78.0315925368742
 20
153.584662489797
 30
0.0
 11
78.0315925368742
 21
153.574662489797
 31
0.0
  0
LINE
  5
E6
330
1F
100
AcDbEntity
  8
Sichtbare_Kanten_TC_020513_DIN_
  6
Continuous
 62
     7
100
AcDbLine
 10
72.5277815603296
 20
153.584662489797
 30
0.0
 11
102.52778156033
 21
153.584662489797
 31
0.0
  0
LINE
  5
E7
330
1F
100
AcDbEntity
  8
Sichtbare_Kanten_TC_020513_DIN_
  6
Continuous
 62
     7
100
AcDbLine
 10
72.5277815603296
 20
157.284662489797
 30
0.0
 11
72.5277815603296
 21
150.584662489797
 31
0.0
  0
LINE
  5
E8
330
1F
100
AcDbEntity
  8
Sichtbare_Kanten_TC_020513_DIN_
  6
Continuous
 62
     7
100
AcDbLine
 10
102.52778156033
 20
150.584662489797
 30
0.0
 11
102.52778156033
 21
157.284662489797
 31
0.0
  0
LINE
  5
E9
330
1F
100
AcDbEntity
  8
Sichtbare_Kanten_TC_020513_DIN_
  6
Continuous
 62
     7
100
AcDbLine
 10
83.7777815603296
 20
153.584662489797
 30
0.0
 11
83.7777815603296
 21
168.784662489797
 31
0.0
  0
LINE
  5
EA
330
1F
100
AcDbEntity
  8
Sichtbare_Kanten_TC_020513_DIN_
  6
Continuous
 62
     7
100
AcDbLine
 10
83.7777815603296
 20
168.784662489797
 30
0.0
 11
86.7777815603296
 21
168.784662489797
 31
0.0
  0
LINE
  5
EB
330
1F
100
AcDbEntity
  8
Sichtbare_Kanten_TC_020513_DIN_
  6
Continuous
 62
     7
100
AcDbLine
 10
86.7777815603296
 20
168.784662489797
 30
0.0
 11
86.7777815603296
 21
153.584662489797
 31
0.0
  0
LINE
  5
EC
330
1F
100
AcDbEntity
  8
Sichtbare_Kanten_TC_020513_DIN_
  6
Continuous
 62
     7
100
AcDbLine
 10
93.0277815603296
 20
153.584662489797
 30
0.0
 11
93.0277815603296
 21
168.784662489797
 31
0.0
  0
LINE
  5
ED
330
1F
100
AcDbEntity
  8
Sichtbare_Kanten_TC_020513_DIN_
  6
Continuous
 62
     7
100
AcDbLine
 10
93.0277815603296
 20
168.784662489797
 30
0.0
 11
98.5277815603296
 21
168.784662489797
 31
0.0
  0
LINE
  5
EE
330
1F
100
AcDbEntity
  8
Sichtbare_Kanten_TC_020513_DIN_
  6
Continuous
 62
     7
100
AcDbLine
 10
98.5277815603296
 20
168.784662489797
 30
0.0
 11
98.5277815603296
 21
150.584662489797
 31
0.0
  0
LINE
  5
EF
330
1F
100
AcDbEntity
  8
Sichtbare_Kanten_TC_020513_DIN_
  6
Continuous
 62
     7
100
AcDbLine
 10
76.5277815603296
 20
150.584662489797
 30
0.0
 11
76.5277815603296
 21
168.784662489797
 31
0.0
  0
LINE
  5
F0
330
1F
100
AcDbEntity
  8
Sichtbare_Kanten_TC_020513_DIN_
  6
Continuous
 62
     7
100
AcDbLine
 10
76.5277815603296
 20
168.784662489797
 30
0.0
 11
82.0277815603295
 21
168.784662489797
 31
0.0
  0
LINE
  5
F1
330
1F
100
AcDbEntity
  8
Sichtbare_Kanten_TC_020513_DIN_
  6
Continuous
 62
     7
100
AcDbLine
 10
82.0277815603295
 20
168.784662489797
 30
0.0
 11
82.0277815603295
 21
153.584662489797
 31
0.0
  0
LINE
  5
F2
330
1F
100
AcDbEntity
  8
Sichtbare_Kanten_TC_020513_DIN_
  6
Continuous
 62
     7
100
AcDbLine
 10
91.2777815603296
 20
168.784662489797
 30
0.0
 11
91.2777815603296
 21
153.584662489797
 31
0.0
  0
LINE
  5
F3
330
1F
100
AcDbEntity
  8
Sichtbare_Kanten_TC_020513_DIN_
  6
Continuous
 62
     7
100
AcDbLine
 10
88.2777815603295
 20
153.584662489797
 30
0.0
 11
88.2777815603295
 21
168.784662489797
 31
0.0
  0
LINE
  5
F4
330
1F
100
AcDbEntity
  8
Sichtbare_Kanten_TC_020513_DIN_
  6
Continuous
 62
     7
100
AcDbLine
 10
88.2777815603295
 20
168.784662489797
 30
0.0
 11
91.2777815603296
 21
168.784662489797
 31
0.0
  0
LINE
  5
F5
330
1F
100
AcDbEntity
  8
Sichtbare_Kanten_TC_020513_DIN_
  6
Continuous
 62
     7
100
AcDbLine
 10
78.0315925368742
 20
184.784662489797
 30
0.0
 11
78.0315925368742
 21
184.794662489797
 31
0.0
  0
LINE
  5
F6
330
1F
100
AcDbEntity
  8
Sichtbare_Kanten_TC_020513_DIN_
  6
Continuous
 62
     7
100
AcDbLine
 10
78.0315928005258
 20
184.794662718679
 30
0.0
 11
77.3296104215661
 21
184.794662718679
 31
0.0
  0
LINE
  5
F7
330
1F
100
AcDbEntity
  8
Sichtbare_Kanten_TC_020513_DIN_
  6
Continuous
 62
     7
100
AcDbLine
 10
77.9462266819436
 20
184.784662489797
 30
0.0
 11
77.9462266819436
 21
184.794662489797
 31
0.0
  0
LINE
  5
F8
330
1F
100
AcDbEntity
  8
Sichtbare_Kanten_TC_020513_DIN_
  6
Continuous
 62
     7
100
AcDbLine
 10
77.3296108190968
 20
184.784662489797
 30
0.0
 11
77.3296108190968
 21
184.794662489797
 31
0.0
  0
LINE
  5
F9
330
1F
100
AcDbEntity
  8
Sichtbare_Kanten_TC_020513_DIN_
  6
Continuous
 62
     7
100
AcDbLine
 10
77.3296108190968
 20
184.794662489797
 30
0.0
 11
77.3166535018305
 21
184.794662489797
 31
0.0
  0
LINE
  5
FA
330
1F
100
AcDbEntity
  8
Sichtbare_Kanten_TC_020513_DIN_
  6
Continuous
 62
     7
100
AcDbLine
 10
77.3166535018305
 20
184.784662489797
 30
0.0
 11
77.3166535018305
 21
184.794662489797
 31
0.0
  0
LINE
  5
FB
330
1F
100
AcDbEntity
  8
Sichtbare_Kanten_TC_020513_DIN_
  6
Continuous
 62
     7
100
AcDbLine
 10
77.3166535638849
 20
184.794662718679
 30
0.0
 11
77.0277820371667
 21
184.794662718679
 31
0.0
  0
LINE
  5
FC
330
1F
100
AcDbEntity
  8
Sichtbare_Kanten_TC_020513_DIN_
  6
Continuous
 62
     7
100
AcDbLine
 10
77.0277815463065
 20
184.784662489797
 30
0.0
 11
77.0277815463065
 21
184.794662489797
 31
0.0
  0
LINE
  5
FD
330
1F
100
AcDbEntity
  8
Sichtbare_Kanten_TC_020513_DIN_
  6
Continuous
 62
     7
100
AcDbLine
 10
98.0315925368742
 20
184.784662489797
 30
0.0
 11
98.0315925368742
 21
184.794662489797
 31
0.0
  0
LINE
  5
FE
330
1F
100
AcDbEntity
  8
Sichtbare_Kanten_TC_020513_DIN_
  6
Continuous
 62
     7
100
AcDbLine
 10
98.0315922044794
 20
184.794662718679
 30
0.0
 11
97.3296110176126
 21
184.794662718679
 31
0.0
  0
LINE
  5
FF
330
1F
100
AcDbEntity
  8
Sichtbare_Kanten_TC_020513_DIN_
  6
Continuous
 62
     7
100
AcDbLine
 10
97.9462266819436
 20
184.784662489797
 30
0.0
 11
97.9462266819436
 21
184.794662489797
 31
0.0
  0
LINE
  5
100
330
1F
100
AcDbEntity
  8
Sichtbare_Kanten_TC_020513_DIN_
  6
Continuous
 62
     7
100
AcDbLine
 10
97.3296108190968
 20
184.784662489797
 30
0.0
 11
97.3296108190968
 21
184.794662489797
 31
0.0
  0
LINE
  5
101
330
1F
100
AcDbEntity
  8
Sichtbare_Kanten_TC_020513_DIN_
  6
Continuous
 62
     7
100
AcDbLine
 10
97.3296108190968
 20
184.794662489797
 30
0.0
 11
97.3166535018305
 21
184.794662489797
 31
0.0
  0
LINE
  5
102
330
1F
100
AcDbEntity
  8
Sichtbare_Kanten_TC_020513_DIN_
  6
Continuous
 62
     7
100
AcDbLine
 10
97.3166535018305
 20
184.784662489797
 30
0.0
 11
97.3166535018305
 21
184.794662489797
 31
0.0
  0
LINE
  5
103
330
1F
100
AcDbEntity
  8
Sichtbare_Kanten_TC_020513_DIN_
  6
Continuous
 62
     7
100
AcDbLine
 10
97.3166535638849
 20
184.794662718679
 30
0.0
 11
97.0277814411203
 21
184.794662718679
 31
0.0
  0
LINE
  5
104
330
1F
100
AcDbEntity
  8
Sichtbare_Kanten_TC_020513_DIN_
  6
Continuous
 62
     7
100
AcDbLine
 10
97.0277815463065
 20
184.784662489797
 30
0.0
 11
97.0277815463065
 21
184.794662489797
 31
0.0
  0
LINE
  5
105
330
1F
100
AcDbEntity
  8
Sichtbare_Kanten_TC_020513_DIN_
  6
Continuous
 62
     7
100
AcDbLine
 10
76.5277815603296
 20
184.784662489797
 30
0.0
 11
98.5277815603296
 21
184.784662489797
 31
0.0
  0
LINE
  5
106
330
1F
100
AcDbEntity
  8
Sichtbare_Kanten_TC_020513_DIN_
  6
Continuous
 62
     7
100
AcDbLine
 10
84.3095357237777
 20
183.284662489797
 30
0.0
 11
84.3095357237777
 21
184.784662489797
 31
0.0
  0
LINE
  5
107
330
1F
100
AcDbEntity
  8
Sichtbare_Kanten_TC_020513_DIN_
  6
Continuous
 62
     7
100
AcDbLine
 10
86.2460273968814
 20
184.784662489797
 30
0.0
 11
86.2460273968814
 21
183.284662489797
 31
0.0
  0
LINE
  5
108
330
1F
100
AcDbEntity
  8
Sichtbare_Kanten_TC_020513_DIN_
  6
Continuous
 62
     7
100
AcDbLine
 10
86.2460273968814
 20
183.284662489797
 30
0.0
 11
84.3095357237777
 21
183.284662489797
 31
0.0
  0
LINE
  5
109
330
1F
100
AcDbEntity
  8
Sichtbare_Kanten_TC_020513_DIN_
  6
Continuous
 62
     7
100
AcDbLine
 10
88.8095357237777
 20
183.284662489797
 30
0.0
 11
88.8095357237777
 21
184.784662489797
 31
0.0
  0
LINE
  5
10A
330
1F
100
AcDbEntity
  8
Sichtbare_Kanten_TC_020513_DIN_
  6
Continuous
 62
     7
100
AcDbLine
 10
90.7460273968814
 20
184.784662489797
 30
0.0
 11
90.7460273968814
 21
183.284662489797
 31
0.0
  0
LINE
  5
10B
330
1F
100
AcDbEntity
  8
Sichtbare_Kanten_TC_020513_DIN_
  6
Continuous
 62
     7
100
AcDbLine
 10
90.7460273968814
 20
183.284662489797
 30
0.0
 11
88.8095357237777
 21
183.284662489797
 31
0.0
  0
LINE
  5
10C
330
1F
100
AcDbEntity
  8
Sichtbare_Kanten_TC_020513_DIN_
  6
Continuous
 62
     7
100
AcDbLine
 10
92.0277815603295
 20
184.784662489797
 30
0.0
 11
92.0277815603295
 21
170.784662489797
 31
0.0
  0
LINE
  5
10D
330
1F
100
AcDbEntity
  8
Sichtbare_Kanten_TC_020513_DIN_
  6
Continuous
 62
     7
100
AcDbLine
 10
83.0277815603296
 20
170.784662489797
 30
0.0
 11
83.0277815603296
 21
184.784662489797
 31
0.0
  0
LINE
  5
10E
330
1F
100
AcDbEntity
  8
Sichtbare_Kanten_TC_020513_DIN_
  6
Continuous
 62
     7
100
AcDbLine
 10
76.5277815603296
 20
170.784662489797
 30
0.0
 11
76.5277815603296
 21
186.784662489797
 31
0.0
  0
LINE
  5
10F
330
1F
100
AcDbEntity
  8
Sichtbare_Kanten_TC_020513_DIN_
  6
Continuous
 62
     7
100
AcDbLine
 10
98.5277815603296
 20
170.784662489797
 30
0.0
 11
98.5277815603296
 21
186.784662489797
 31
0.0
  0
LINE
  5
110
330
1F
100
AcDbEntity
  8
Sichtbare_Kanten_TC_020513_DIN_
  6
Continuous
 62
     7
100
AcDbLine
 10
72.5277815603296
 20
156.784662489797
 30
0.0
 11
67.5277815603296
 21
156.784662489797
 31
0.0
  0
LINE
  5
111
330
1F
100
AcDbEntity
  8
Sichtbare_Kanten_TC_020513_DIN_
  6
Continuous
 62
     7
100
AcDbLine
 10
67.5277815603296
 20
156.784662489797
 30
0.0
 11
67.5277815603296
 21
159.784662489797
 31
0.0
  0
LINE
  5
112
330
1F
100
AcDbEntity
  8
Sichtbare_Kanten_TC_020513_DIN_
  6
Continuous
 62
     7
100
AcDbLine
 10
72.234522365135
 20
159.784662489797
 30
0.0
 11
67.5277815603296
 21
159.784662489797
 31
0.0
  0
LINE
  5
113
330
1F
100
AcDbEntity
  8
Sichtbare_Kanten_TC_020513_DIN_
  6
Continuous
 62
     7
100
AcDbLine
 10
70.3577815603296
 20
164.753289456394
 30
0.0
 11
71.2777815603295
 21
164.753289456394
 31
0.0
  0
LINE
  5
114
330
1F
100
AcDbEntity
  8
Sichtbare_Kanten_TC_020513_DIN_
  6
Continuous
 62
     7
100
AcDbLine
 10
70.0518242039944
 20
156.284662489797
 30
0.0
 11
71.2777815603296
 21
156.284662489797
 31
0.0
  0
LINE
  5
115
330
1F
100
AcDbEntity
  8
Sichtbare_Kanten_TC_020513_DIN_
  6
Continuous
 62
     7
100
AcDbLine
 10
70.0518242039944
 20
165.284662489797
 30
0.0
 11
71.2777815603296
 21
165.284662489797
 31
0.0
  0
LINE
  5
116
330
1F
100
AcDbEntity
  8
Sichtbare_Kanten_TC_020513_DIN_
  6
Continuous
 62
     7
100
AcDbLine
 10
71.2777815603296
 20
159.784662489797
 30
0.0
 11
71.2777815603296
 21
167.584662489797
 31
0.0
  0
LINE
  5
117
330
1F
100
AcDbEntity
  8
Sichtbare_Kanten_TC_020513_DIN_
  6
Continuous
 62
     7
100
AcDbLine
 10
71.2777815603296
 20
155.583662489797
 30
0.0
 11
71.2777815603296
 21
156.784662489797
 31
0.0
  0
LINE
  5
118
330
1F
100
AcDbEntity
  8
Sichtbare_Kanten_TC_020513_DIN_
  6
Continuous
 62
     7
100
AcDbLine
 10
74.5277815603295
 20
153.583662489797
 30
0.0
 11
76.5277815603296
 21
153.583662489797
 31
0.0
  0
LINE
  5
119
330
1F
100
AcDbEntity
  8
Sichtbare_Kanten_TC_020513_DIN_
  6
Continuous
 62
     7
100
AcDbLine
 10
65.1277815603296
 20
170.484662489797
 30
0.0
 11
65.1277815603296
 21
171.484662489797
 31
0.0
  0
LINE
  5
11A
330
1F
100
AcDbEntity
  8
Sichtbare_Kanten_TC_020513_DIN_
  6
Continuous
 62
     7
100
AcDbLine
 10
65.1277814649621
 20
171.484662492777
 30
0.0
 11
65.1277814649621
 21
171.68466252556
 31
0.0
  0
LINE
  5
11B
330
1F
100
AcDbEntity
  8
Sichtbare_Kanten_TC_020513_DIN_
  6
Continuous
 62
     7
100
AcDbLine
 10
65.9277815603295
 20
171.484662489797
 30
0.0
 11
65.9277815603295
 21
170.484662489797
 31
0.0
  0
LINE
  5
11C
330
1F
100
AcDbEntity
  8
Sichtbare_Kanten_TC_020513_DIN_
  6
Continuous
 62
     7
100
AcDbLine
 10
65.9277807020227
 20
171.68466252556
 30
0.0
 11
65.9277807020227
 21
171.484662492777
 31
0.0
  0
LINE
  5
11D
330
1F
100
AcDbEntity
  8
Sichtbare_Kanten_TC_020513_DIN_
  6
Continuous
 62
     7
100
AcDbLine
 10
65.1277815603296
 20
170.484662489797
 30
0.0
 11
65.9277815603295
 21
170.484662489797
 31
0.0
  0
LINE
  5
11E
330
1F
100
AcDbEntity
  8
Sichtbare_Kanten_TC_020513_DIN_
  6
Continuous
 62
     7
100
AcDbLine
 10
65.1277815603296
 20
171.684662489797
 30
0.0
 11
62.9777815603296
 21
171.684662489797
 31
0.0
  0
LINE
  5
11F
330
1F
100
AcDbEntity
  8
Sichtbare_Kanten_TC_020513_DIN_
  6
Continuous
 62
     7
100
AcDbLine
 10
68.0777815603296
 20
171.684662489797
 30
0.0
 11
65.9277815603295
 21
171.684662489797
 31
0.0
  0
LINE
  5
120
330
1F
100
AcDbEntity
  8
Sichtbare_Kanten_TC_020513_DIN_
  6
Continuous
 62
     7
100
AcDbLine
 10
68.2777815603296
 20
169.784662489797
 30
0.0
 11
62.7777815603296
 21
169.784662489797
 31
0.0
  0
LINE
  5
121
330
1F
100
AcDbEntity
  8
Sichtbare_Kanten_TC_020513_DIN_
  6
Continuous
 62
     7
100
AcDbLine
 10
68.1777815603296
 20
169.684662489797
 30
0.0
 11
62.8777815603296
 21
169.684662489797
 31
0.0
  0
LINE
  5
122
330
1F
100
AcDbEntity
  8
Sichtbare_Kanten_TC_020513_DIN_
  6
Continuous
 62
     7
100
AcDbLine
 10
67.0277815603296
 20
163.784662489797
 30
0.0
 11
64.0277815603295
 21
163.784662489797
 31
0.0
  0
LINE
  5
123
330
1F
100
AcDbEntity
  8
Sichtbare_Kanten_TC_020513_DIN_
  6
Continuous
 62
     7
100
AcDbLine
 10
67.0277815603296
 20
159.784662489797
 30
0.0
 11
64.0277815603295
 21
159.784662489797
 31
0.0
  0
LINE
  5
124
330
1F
100
AcDbEntity
  8
Sichtbare_Kanten_TC_020513_DIN_
  6
Continuous
 62
     7
100
AcDbLine
 10
66.5277815603296
 20
159.284662489797
 30
0.0
 11
64.5277815603295
 21
159.284662489797
 31
0.0
  0
LINE
  5
125
330
1F
100
AcDbEntity
  8
Sichtbare_Kanten_TC_020513_DIN_
  6
Continuous
 62
     7
100
AcDbLine
 10
72.5277815603296
 20
157.284662489797
 30
0.0
 11
73.7196097070136
 21
157.42446831504
 31
0.0
  0
LINE
  5
126
330
1F
100
AcDbEntity
  8
Sichtbare_Kanten_TC_020513_DIN_
  6
Continuous
 62
     7
100
AcDbLine
 10
73.7196097070136
 20
157.42446831504
 30
0.0
 11
72.5277815603296
 21
167.584662489797
 31
0.0
  0
LINE
  5
127
330
1F
100
AcDbEntity
  8
Sichtbare_Kanten_TC_020513_DIN_
  6
Continuous
 62
     7
100
AcDbLine
 10
71.3195536761279
 20
167.584662489797
 30
0.0
 11
72.5277815603296
 21
157.284662489797
 31
0.0
  0
LINE
  5
128
330
1F
100
AcDbEntity
  8
Sichtbare_Kanten_TC_020513_DIN_
  6
Continuous
 62
     7
100
AcDbLine
 10
74.5287815603296
 20
153.583662489797
 30
0.0
 11
74.5287815603296
 21
153.584662489797
 31
0.0
  0
LINE
  5
129
330
1F
100
AcDbEntity
  8
Sichtbare_Kanten_TC_020513_DIN_
  6
Continuous
 62
     7
100
AcDbLine
 10
71.5277815603295
 20
183.284662489797
 30
0.0
 11
71.5277815603296
 21
170.784662489797
 31
0.0
  0
LINE
  5
12A
330
1F
100
AcDbEntity
  8
Sichtbare_Kanten_TC_020513_DIN_
  6
Continuous
 62
     7
100
AcDbLine
 10
71.7653076528237
 20
163.784662489797
 30
0.0
 11
71.2777815603296
 21
163.784662489797
 31
0.0
  0
LINE
  5
12B
330
1F
100
AcDbEntity
  8
Sichtbare_Kanten_TC_020513_DIN_
  6
Continuous
 62
     7
100
AcDbLine
 10
72.5277815603296
 20
168.784662489797
 30
0.0
 11
72.5277815603296
 21
167.584662489797
 31
0.0
  0
LINE
  5
12C
330
1F
100
AcDbEntity
  8
Sichtbare_Kanten_TC_020513_DIN_
  6
Continuous
 62
     7
100
AcDbLine
 10
62.4777815603296
 20
168.784662489797
 30
0.0
 11
72.5277815603296
 21
168.784662489797
 31
0.0
  0
LINE
  5
12D
330
1F
100
AcDbEntity
  8
Sichtbare_Kanten_TC_020513_DIN_
  6
Continuous
 62
     7
100
AcDbLine
 10
71.3195536761279
 20
167.584662489797
 30
0.0
 11
62.4777815603296
 21
167.584662489797
 31
0.0
  0
LINE
  5
12E
330
1F
100
AcDbEntity
  8
Sichtbare_Kanten_TC_020513_DIN_
  6
Continuous
 62
     7
100
AcDbLine
 10
62.4777815603296
 20
168.784662489797
 30
0.0
 11
62.4777815603296
 21
167.584662489797
 31
0.0
  0
LINE
  5
12F
330
1F
100
AcDbEntity
  8
Sichtbare_Kanten_TC_020513_DIN_
  6
Continuous
 62
     7
100
AcDbLine
 10
64.2277815603296
 20
163.784662489797
 30
0.0
 11
64.2277815603296
 21
167.584662489797
 31
0.0
  0
LINE
  5
130
330
1F
100
AcDbEntity
  8
Sichtbare_Kanten_TC_020513_DIN_
  6
Continuous
 62
     7
100
AcDbLine
 10
66.8277815603296
 20
163.784662489797
 30
0.0
 11
66.8277815603296
 21
167.584662489797
 31
0.0
  0
LINE
  5
131
330
1F
100
AcDbEntity
  8
Sichtbare_Kanten_TC_020513_DIN_
  6
Continuous
 62
     7
100
AcDbLine
 10
62.7777815603296
 20
169.784662489797
 30
0.0
 11
62.7777815603296
 21
171.484662489797
 31
0.0
  0
LINE
  5
132
330
1F
100
AcDbEntity
  8
Sichtbare_Kanten_TC_020513_DIN_
  6
Continuous
 62
     7
100
AcDbLine
 10
68.2777815603296
 20
169.784662489797
 30
0.0
 11
68.2777815603296
 21
171.484662489797
 31
0.0
  0
LINE
  5
133
330
1F
100
AcDbEntity
  8
Sichtbare_Kanten_TC_020513_DIN_
  6
Continuous
 62
     7
100
AcDbLine
 10
64.2277815603296
 20
169.684662489797
 30
0.0
 11
64.2277815603296
 21
169.784662489797
 31
0.0
  0
LINE
  5
134
330
1F
100
AcDbEntity
  8
Sichtbare_Kanten_TC_020513_DIN_
  6
Continuous
 62
     7
100
AcDbLine
 10
66.8277815603296
 20
169.684662489797
 30
0.0
 11
66.8277815603296
 21
169.784662489797
 31
0.0
  0
LINE
  5
135
330
1F
100
AcDbEntity
  8
Sichtbare_Kanten_TC_020513_DIN_
  6
Continuous
 62
     7
100
AcDbLine
 10
62.8777815603296
 20
168.784662489797
 30
0.0
 11
62.8777815603296
 21
169.684662489797
 31
0.0
  0
LINE
  5
136
330
1F
100
AcDbEntity
  8
Sichtbare_Kanten_TC_020513_DIN_
  6
Continuous
 62
     7
100
AcDbLine
 10
68.1777815603296
 20
168.784662489797
 30
0.0
 11
68.1777815603296
 21
169.684662489797
 31
0.0
  0
LINE
  5
137
330
1F
100
AcDbEntity
  8
Sichtbare_Kanten_TC_020513_DIN_
  6
Continuous
 62
     7
100
AcDbLine
 10
64.0277815603295
 20
159.784662489797
 30
0.0
 11
64.0277815603295
 21
163.784662489797
 31
0.0
  0
LINE
  5
138
330
1F
100
AcDbEntity
  8
Sichtbare_Kanten_TC_020513_DIN_
  6
Continuous
 62
     7
100
AcDbLine
 10
67.0277815603296
 20
159.784662489797
 30
0.0
 11
67.0277815603296
 21
163.784662489797
 31
0.0
  0
LINE
  5
139
330
1F
100
AcDbEntity
  8
Sichtbare_Kanten_TC_020513_DIN_
  6
Continuous
 62
     7
100
AcDbLine
 10
64.5277815603295
 20
159.284662489797
 30
0.0
 11
64.0277815603295
 21
159.784662489797
 31
0.0
  0
LINE
  5
13A
330
1F
100
AcDbEntity
  8
Sichtbare_Kanten_TC_020513_DIN_
  6
Continuous
 62
     7
100
AcDbLine
 10
66.5277815603296
 20
159.284662489797
 30
0.0
 11
67.0277815603296
 21
159.784662489797
 31
0.0
  0
LINE
  5
13B
330
1F
100
AcDbEntity
  8
Gewinde_TC_020513_DIN_
  6
Continuous
 62
     7
100
AcDbLine
 10
66.7267815603296
 20
159.483662489797
 30
0.0
 11
66.7267815603296
 21
163.784662489797
 31
0.0
  0
LINE
  5
13C
330
1F
100
AcDbEntity
  8
Gewinde_TC_020513_DIN_
  6
Continuous
 62
     7
100
AcDbLine
 10
64.3287815603295
 20
163.784662489797
 30
0.0
 11
64.3287815603295
 21
159.483662489797
 31
0.0
  0
LINE
  5
13D
330
1F
100
AcDbEntity
  8
Gewinde_TC_020513_DIN_
  6
Continuous
 62
     7
100
AcDbLine
 10
64.3287815603295
 20
163.784662489797
 30
0.0
 11
64.3287815603295
 21
159.483662489797
 31
0.0
  0
LINE
  5
13E
330
1F
100
AcDbEntity
  8
Gewinde_TC_020513_DIN_
  6
Continuous
 62
     7
100
AcDbLine
 10
66.7267815603296
 20
159.483662489797
 30
0.0
 11
66.7267815603296
 21
163.784662489797
 31
0.0
  0
LINE
  5
13F
330
1F
100
AcDbEntity
  8
Sichtbare_Kanten_TC_020513_DIN_
  6
Continuous
 62
     7
100
AcDbLine
 10
67.0277815603296
 20
163.784662489797
 30
0.0
 11
64.0277815603295
 21
163.784662489797
 31
0.0
  0
LINE
  5
140
330
1F
100
AcDbEntity
  8
Sichtbare_Kanten_TC_020513_DIN_
  6
Continuous
 62
     7
100
AcDbLine
 10
74.5277815603295
 20
150.584662489797
 30
0.0
 11
72.5277815603296
 21
150.584662489797
 31
0.0
  0
LINE
  5
141
330
1F
100
AcDbEntity
  8
Sichtbare_Kanten_TC_020513_DIN_
  6
Continuous
 62
     7
100
AcDbLine
 10
98.5277815603296
 20
150.584662489797
 30
0.0
 11
96.5277815603296
 21
150.584662489797
 31
0.0
  0
LINE
  5
142
330
1F
100
AcDbEntity
  8
Sichtbare_Kanten_TC_020513_DIN_
  6
Continuous
 62
     7
100
AcDbLine
 10
96.5277815603296
 20
150.584662489797
 30
0.0
 11
96.5277815603296
 21
153.584662489797
 31
0.0
  0
LINE
  5
143
330
1F
100
AcDbEntity
  8
Sichtbare_Kanten_TC_020513_DIN_
  6
Continuous
 62
     7
100
AcDbLine
 10
102.52778156033
 20
150.584662489797
 30
0.0
 11
100.52778156033
 21
150.584662489797
 31
0.0
  0
LINE
  5
144
330
1F
100
AcDbEntity
  8
Sichtbare_Kanten_TC_020513_DIN_
  6
Continuous
 62
     7
100
AcDbLine
 10
78.5277815603296
 20
150.584662489797
 30
0.0
 11
76.5277815603296
 21
150.584662489797
 31
0.0
  0
LINE
  5
145
330
1F
100
AcDbEntity
  8
Sichtbare_Kanten_TC_020513_DIN_
  6
Continuous
 62
     7
100
AcDbLine
 10
78.5277815603296
 20
153.584662489797
 30
0.0
 11
78.5277815603296
 21
150.584662489797
 31
0.0
  0
LINE
  5
146
330
1F
100
AcDbEntity
  8
Sichtbare_Kanten_TC_020513_DIN_
  6
Continuous
 62
     7
100
AcDbLine
 10
102.52778156033
 20
156.784662489797
 30
0.0
 11
107.52778156033
 21
156.784662489797
 31
0.0
  0
LINE
  5
147
330
1F
100
AcDbEntity
  8
Sichtbare_Kanten_TC_020513_DIN_
  6
Continuous
 62
     7
100
AcDbLine
 10
107.52778156033
 20
156.784662489797
 30
0.0
 11
107.52778156033
 21
159.784662489797
 31
0.0
  0
LINE
  5
148
330
1F
100
AcDbEntity
  8
Sichtbare_Kanten_TC_020513_DIN_
  6
Continuous
 62
     7
100
AcDbLine
 10
102.821040755524
 20
159.784662489797
 30
0.0
 11
107.52778156033
 21
159.784662489797
 31
0.0
  0
LINE
  5
149
330
1F
100
AcDbEntity
  8
Sichtbare_Kanten_TC_020513_DIN_
  6
Continuous
 62
     7
100
AcDbLine
 10
103.77778156033
 20
155.583662489797
 30
0.0
 11
103.77778156033
 21
156.784662489797
 31
0.0
  0
LINE
  5
14A
330
1F
100
AcDbEntity
  8
Sichtbare_Kanten_TC_020513_DIN_
  6
Continuous
 62
     7
100
AcDbLine
 10
103.77778156033
 20
159.784662489797
 30
0.0
 11
103.77778156033
 21
167.584662489797
 31
0.0
  0
LINE
  5
14B
330
1F
100
AcDbEntity
  8
Sichtbare_Kanten_TC_020513_DIN_
  6
Continuous
 62
     7
100
AcDbLine
 10
103.290255467835
 20
163.784662489797
 30
0.0
 11
103.77778156033
 21
163.784662489797
 31
0.0
  0
LINE
  5
14C
330
1F
100
AcDbEntity
  8
Sichtbare_Kanten_TC_020513_DIN_
  6
Continuous
 62
     7
100
AcDbLine
 10
70.3577815603296
 20
165.284662489797
 30
0.0
 11
70.3577815603296
 21
164.753289456394
 31
0.0
  0
LINE
  5
14D
330
1F
100
AcDbEntity
  8
Sichtbare_Kanten_TC_020513_DIN_
  6
Continuous
 62
     7
100
AcDbLine
 10
70.3577815603296
 20
156.784662489797
 30
0.0
 11
70.3577815603296
 21
156.284662489797
 31
0.0
  0
LINE
  5
14E
330
1F
100
AcDbEntity
  8
Sichtbare_Kanten_TC_020513_DIN_
  6
Continuous
 62
     7
100
AcDbLine
 10
67.4723152611109
 20
164.248764104935
 30
0.0
 11
67.4723152611109
 21
157.320560874659
 31
0.0
  0
LINE
  5
14F
330
1F
100
AcDbEntity
  8
Sichtbare_Kanten_TC_020513_DIN_
  6
Continuous
 62
     7
100
AcDbLine
 10
69.6636839286261
 20
164.284662489797
 30
0.0
 11
69.6636839286261
 21
159.784662489797
 31
0.0
  0
LINE
  5
150
330
1F
100
AcDbEntity
  8
Sichtbare_Kanten_TC_020513_DIN_
  6
Continuous
 62
     7
100
AcDbLine
 10
69.6636839286261
 20
164.284662489797
 30
0.0
 11
68.0277815603296
 21
164.284662489797
 31
0.0
  0
LINE
  5
151
330
1F
100
AcDbEntity
  8
Sichtbare_Kanten_TC_020513_DIN_
  6
Continuous
 62
     7
100
AcDbLine
 10
68.0277815603296
 20
164.248764104935
 30
0.0
 11
67.4723152611109
 21
164.248764104935
 31
0.0
  0
LINE
  5
152
330
1F
100
AcDbEntity
  8
Sichtbare_Kanten_TC_020513_DIN_
  6
Continuous
 62
     7
100
AcDbLine
 10
68.0277815603296
 20
164.248764104935
 30
0.0
 11
68.0277815603296
 21
164.284662489797
 31
0.0
  0
LINE
  5
153
330
1F
100
AcDbEntity
  8
Sichtbare_Kanten_TC_020513_DIN_
  6
Continuous
 62
     7
100
AcDbLine
 10
67.2969403605422
 20
161.284662489797
 30
0.0
 11
67.1761878373194
 21
161.284662489797
 31
0.0
  0
LINE
  5
154
330
1F
100
AcDbEntity
  8
Sichtbare_Kanten_TC_020513_DIN_
  6
Continuous
 62
     7
100
AcDbLine
 10
67.1761878373194
 20
160.284662489797
 30
0.0
 11
67.2969403605422
 21
160.284662489797
 31
0.0
  0
LINE
  5
155
330
1F
100
AcDbEntity
  8
Sichtbare_Kanten_TC_020513_DIN_
  6
Continuous
 62
     7
100
AcDbLine
 10
67.4723152611109
 20
157.320560874659
 30
0.0
 11
67.5277815603296
 21
157.320560874659
 31
0.0
  0
LINE
  5
156
330
1F
100
AcDbEntity
  8
Sichtbare_Kanten_TC_020513_DIN_
  6
Continuous
 62
     7
100
AcDbLine
 10
109.12778156033
 20
170.484662489797
 30
0.0
 11
109.92778156033
 21
170.484662489797
 31
0.0
  0
LINE
  5
157
330
1F
100
AcDbEntity
  8
Sichtbare_Kanten_TC_020513_DIN_
  6
Continuous
 62
     7
100
AcDbLine
 10
109.12778156033
 20
170.484662489797
 30
0.0
 11
109.12778156033
 21
171.484662489797
 31
0.0
  0
LINE
  5
158
330
1F
100
AcDbEntity
  8
Sichtbare_Kanten_TC_020513_DIN_
  6
Continuous
 62
     7
100
AcDbLine
 10
109.127782418636
 20
171.484662492777
 30
0.0
 11
109.127782418636
 21
171.68466252556
 31
0.0
  0
LINE
  5
159
330
1F
100
AcDbEntity
  8
Sichtbare_Kanten_TC_020513_DIN_
  6
Continuous
 62
     7
100
AcDbLine
 10
109.92778156033
 20
171.484662489797
 30
0.0
 11
109.92778156033
 21
170.484662489797
 31
0.0
  0
LINE
  5
15A
330
1F
100
AcDbEntity
  8
Sichtbare_Kanten_TC_020513_DIN_
  6
Continuous
 62
     7
100
AcDbLine
 10
109.927781655697
 20
171.68466252556
 30
0.0
 11
109.927781655697
 21
171.484662492777
 31
0.0
  0
LINE
  5
15B
330
1F
100
AcDbEntity
  8
Sichtbare_Kanten_TC_020513_DIN_
  6
Continuous
 62
     7
100
AcDbLine
 10
109.92778156033
 20
171.684662489797
 30
0.0
 11
112.07778156033
 21
171.684662489797
 31
0.0
  0
LINE
  5
15C
330
1F
100
AcDbEntity
  8
Sichtbare_Kanten_TC_020513_DIN_
  6
Continuous
 62
     7
100
AcDbLine
 10
106.77778156033
 20
169.784662489797
 30
0.0
 11
112.27778156033
 21
169.784662489797
 31
0.0
  0
LINE
  5
15D
330
1F
100
AcDbEntity
  8
Sichtbare_Kanten_TC_020513_DIN_
  6
Continuous
 62
     7
100
AcDbLine
 10
106.97778156033
 20
171.684662489797
 30
0.0
 11
109.12778156033
 21
171.684662489797
 31
0.0
  0
LINE
  5
15E
330
1F
100
AcDbEntity
  8
Sichtbare_Kanten_TC_020513_DIN_
  6
Continuous
 62
     7
100
AcDbLine
 10
106.87778156033
 20
169.684662489797
 30
0.0
 11
112.17778156033
 21
169.684662489797
 31
0.0
  0
LINE
  5
15F
330
1F
100
AcDbEntity
  8
Sichtbare_Kanten_TC_020513_DIN_
  6
Continuous
 62
     7
100
AcDbLine
 10
108.02778156033
 20
163.784662489797
 30
0.0
 11
111.02778156033
 21
163.784662489797
 31
0.0
  0
LINE
  5
160
330
1F
100
AcDbEntity
  8
Sichtbare_Kanten_TC_020513_DIN_
  6
Continuous
 62
     7
100
AcDbLine
 10
108.02778156033
 20
159.784662489797
 30
0.0
 11
111.02778156033
 21
159.784662489797
 31
0.0
  0
LINE
  5
161
330
1F
100
AcDbEntity
  8
Sichtbare_Kanten_TC_020513_DIN_
  6
Continuous
 62
     7
100
AcDbLine
 10
108.52778156033
 20
159.284662489797
 30
0.0
 11
110.52778156033
 21
159.284662489797
 31
0.0
  0
LINE
  5
162
330
1F
100
AcDbEntity
  8
Sichtbare_Kanten_TC_020513_DIN_
  6
Continuous
 62
     7
100
AcDbLine
 10
112.27778156033
 20
171.484662489797
 30
0.0
 11
112.27778156033
 21
169.784662489797
 31
0.0
  0
LINE
  5
163
330
1F
100
AcDbEntity
  8
Sichtbare_Kanten_TC_020513_DIN_
  6
Continuous
 62
     7
100
AcDbLine
 10
106.77778156033
 20
171.484662489797
 30
0.0
 11
106.77778156033
 21
169.784662489797
 31
0.0
  0
LINE
  5
164
330
1F
100
AcDbEntity
  8
Sichtbare_Kanten_TC_020513_DIN_
  6
Continuous
 62
     7
100
AcDbLine
 10
110.82778156033
 20
167.584662489797
 30
0.0
 11
110.82778156033
 21
163.784662489797
 31
0.0
  0
LINE
  5
165
330
1F
100
AcDbEntity
  8
Sichtbare_Kanten_TC_020513_DIN_
  6
Continuous
 62
     7
100
AcDbLine
 10
108.22778156033
 20
167.584662489797
 30
0.0
 11
108.22778156033
 21
163.784662489797
 31
0.0
  0
LINE
  5
166
330
1F
100
AcDbEntity
  8
Sichtbare_Kanten_TC_020513_DIN_
  6
Continuous
 62
     7
100
AcDbLine
 10
110.82778156033
 20
169.784662489797
 30
0.0
 11
110.82778156033
 21
169.684662489797
 31
0.0
  0
LINE
  5
167
330
1F
100
AcDbEntity
  8
Sichtbare_Kanten_TC_020513_DIN_
  6
Continuous
 62
     7
100
AcDbLine
 10
108.22778156033
 20
169.784662489797
 30
0.0
 11
108.22778156033
 21
169.684662489797
 31
0.0
  0
LINE
  5
168
330
1F
100
AcDbEntity
  8
Sichtbare_Kanten_TC_020513_DIN_
  6
Continuous
 62
     7
100
AcDbLine
 10
112.17778156033
 20
169.684662489797
 30
0.0
 11
112.17778156033
 21
168.784662489797
 31
0.0
  0
LINE
  5
169
330
1F
100
AcDbEntity
  8
Sichtbare_Kanten_TC_020513_DIN_
  6
Continuous
 62
     7
100
AcDbLine
 10
106.87778156033
 20
169.684662489797
 30
0.0
 11
106.87778156033
 21
168.784662489797
 31
0.0
  0
LINE
  5
16A
330
1F
100
AcDbEntity
  8
Sichtbare_Kanten_TC_020513_DIN_
  6
Continuous
 62
     7
100
AcDbLine
 10
111.02778156033
 20
163.784662489797
 30
0.0
 11
111.02778156033
 21
159.784662489797
 31
0.0
  0
LINE
  5
16B
330
1F
100
AcDbEntity
  8
Sichtbare_Kanten_TC_020513_DIN_
  6
Continuous
 62
     7
100
AcDbLine
 10
108.52778156033
 20
159.284662489797
 30
0.0
 11
108.02778156033
 21
159.784662489797
 31
0.0
  0
LINE
  5
16C
330
1F
100
AcDbEntity
  8
Sichtbare_Kanten_TC_020513_DIN_
  6
Continuous
 62
     7
100
AcDbLine
 10
110.52778156033
 20
159.284662489797
 30
0.0
 11
111.02778156033
 21
159.784662489797
 31
0.0
  0
LINE
  5
16D
330
1F
100
AcDbEntity
  8
Sichtbare_Kanten_TC_020513_DIN_
  6
Continuous
 62
     7
100
AcDbLine
 10
102.52778156033
 20
157.284662489797
 30
0.0
 11
101.335953413646
 21
157.42446831504
 31
0.0
  0
LINE
  5
16E
330
1F
100
AcDbEntity
  8
Sichtbare_Kanten_TC_020513_DIN_
  6
Continuous
 62
     7
100
AcDbLine
 10
101.335953413646
 20
157.42446831504
 30
0.0
 11
102.52778156033
 21
167.584662489797
 31
0.0
  0
LINE
  5
16F
330
1F
100
AcDbEntity
  8
Sichtbare_Kanten_TC_020513_DIN_
  6
Continuous
 62
     7
100
AcDbLine
 10
103.736009444531
 20
167.584662489797
 30
0.0
 11
102.52778156033
 21
157.284662489797
 31
0.0
  0
LINE
  5
170
330
1F
100
AcDbEntity
  8
Sichtbare_Kanten_TC_020513_DIN_
  6
Continuous
 62
     7
100
AcDbLine
 10
112.57778156033
 20
167.584662489797
 30
0.0
 11
103.736009444531
 21
167.584662489797
 31
0.0
  0
LINE
  5
171
330
1F
100
AcDbEntity
  8
Sichtbare_Kanten_TC_020513_DIN_
  6
Continuous
 62
     7
100
AcDbLine
 10
112.57778156033
 20
168.784662489797
 30
0.0
 11
102.52778156033
 21
168.784662489797
 31
0.0
  0
LINE
  5
172
330
1F
100
AcDbEntity
  8
Sichtbare_Kanten_TC_020513_DIN_
  6
Continuous
 62
     7
100
AcDbLine
 10
102.52778156033
 20
168.784662489797
 30
0.0
 11
102.52778156033
 21
167.584662489797
 31
0.0
  0
LINE
  5
173
330
1F
100
AcDbEntity
  8
Sichtbare_Kanten_TC_020513_DIN_
  6
Continuous
 62
     7
100
AcDbLine
 10
112.57778156033
 20
168.784662489797
 30
0.0
 11
112.57778156033
 21
167.584662489797
 31
0.0
  0
LINE
  5
174
330
1F
100
AcDbEntity
  8
Sichtbare_Kanten_TC_020513_DIN_
  6
Continuous
 62
     7
100
AcDbLine
 10
100.52778156033
 20
153.583662489797
 30
0.0
 11
98.5277815603296
 21
153.583662489797
 31
0.0
  0
LINE
  5
175
330
1F
100
AcDbEntity
  8
Sichtbare_Kanten_TC_020513_DIN_
  6
Continuous
 62
     7
100
AcDbLine
 10
100.52678156033
 20
153.583662489797
 30
0.0
 11
100.52678156033
 21
153.584662489797
 31
0.0
  0
LINE
  5
176
330
1F
100
AcDbEntity
  8
Sichtbare_Kanten_TC_020513_DIN_
  6
Continuous
 62
     7
100
AcDbLine
 10
103.52778156033
 20
183.284662489797
 30
0.0
 11
103.52778156033
 21
170.784662489797
 31
0.0
  0
LINE
  5
177
330
1F
100
AcDbEntity
  8
Sichtbare_Kanten_TC_020513_DIN_
  6
Continuous
 62
     7
100
AcDbLine
 10
103.02778156033
 20
186.784662489797
 30
0.0
 11
98.5277815603296
 21
186.784662489797
 31
0.0
  0
LINE
  5
178
330
1F
100
AcDbEntity
  8
Sichtbare_Kanten_TC_020513_DIN_
  6
Continuous
 62
     7
100
AcDbLine
 10
76.5277815603296
 20
186.784662489797
 30
0.0
 11
72.0277815603296
 21
186.784662489797
 31
0.0
  0
LINE
  5
179
330
1F
100
AcDbEntity
  8
Sichtbare_Kanten_TC_020513_DIN_
  6
Continuous
 62
     7
100
AcDbLine
 10
103.02778156033
 20
170.784662489797
 30
0.0
 11
103.02778156033
 21
186.784662489797
 31
0.0
  0
LINE
  5
17A
330
1F
100
AcDbEntity
  8
Sichtbare_Kanten_TC_020513_DIN_
  6
Continuous
 62
     7
100
AcDbLine
 10
72.0277815603296
 20
186.784662489797
 30
0.0
 11
72.0277815603295
 21
170.784662489797
 31
0.0
  0
LINE
  5
17B
330
1F
100
AcDbEntity
  8
Sichtbare_Kanten_TC_020513_DIN_
  6
Continuous
 62
     7
100
AcDbLine
 10
74.5277815603295
 20
150.584662489797
 30
0.0
 11
74.5277815603295
 21
153.584662489797
 31
0.0
  0
LINE
  5
17C
330
1F
100
AcDbEntity
  8
Sichtbare_Kanten_TC_020513_DIN_
  6
Continuous
 62
     7
100
AcDbLine
 10
100.52778156033
 20
153.584662489797
 30
0.0
 11
100.52778156033
 21
150.584662489797
 31
0.0
  0
LINE
  5
17D
330
1F
100
AcDbEntity
  8
Gewinde_TC_020513_DIN_
  6
Continuous
 62
     7
100
AcDbLine
 10
108.32878156033
 20
163.784662489797
 30
0.0
 11
108.32878156033
 21
159.483662489797
 31
0.0
  0
LINE
  5
17E
330
1F
100
AcDbEntity
  8
Gewinde_TC_020513_DIN_
  6
Continuous
 62
     7
100
AcDbLine
 10
110.72678156033
 20
159.483662489797
 30
0.0
 11
110.72678156033
 21
163.784662489797
 31
0.0
  0
LINE
  5
17F
330
1F
100
AcDbEntity
  8
Gewinde_TC_020513_DIN_
  6
Continuous
 62
     7
100
AcDbLine
 10
110.72678156033
 20
159.483662489797
 30
0.0
 11
110.72678156033
 21
163.784662489797
 31
0.0
  0
LINE
  5
180
330
1F
100
AcDbEntity
  8
Gewinde_TC_020513_DIN_
  6
Continuous
 62
     7
100
AcDbLine
 10
108.32878156033
 20
163.784662489797
 30
0.0
 11
108.32878156033
 21
159.483662489797
 31
0.0
  0
LINE
  5
181
330
1F
100
AcDbEntity
  8
Sichtbare_Kanten_TC_020513_DIN_
  6
Continuous
 62
     7
100
AcDbLine
 10
108.02778156033
 20
163.784662489797
 30
0.0
 11
111.02778156033
 21
163.784662489797
 31
0.0
  0
LINE
  5
182
330
1F
100
AcDbEntity
  8
Sichtbare_Kanten_TC_020513_DIN_
  6
Continuous
 62
     7
100
AcDbLine
 10
78.0315925369519
 20
246.763032097957
 30
0.0
 11
78.0315925369519
 21
246.102208917379
 31
0.0
  0
LINE
  5
183
330
1F
100
AcDbEntity
  8
Sichtbare_Kanten_TC_020513_DIN_
  6
Continuous
 62
     7
100
AcDbLine
 10
77.3296108191745
 20
246.251599163507
 30
0.0
 11
77.3166535019082
 21
246.125074771378
 31
0.0
  0
LINE
  5
184
330
1F
100
AcDbEntity
  8
Sichtbare_Kanten_TC_020513_DIN_
  6
Continuous
 62
     7
100
AcDbLine
 10
77.9134522912891
 20
246.27294062724
 30
0.0
 11
77.9134522912891
 21
246.763032097957
 31
0.0
  0
LINE
  5
185
330
1F
100
AcDbEntity
  8
Sichtbare_Kanten_TC_020513_DIN_
  6
Continuous
 62
     7
100
AcDbLine
 10
77.9134522912891
 20
246.763032097957
 30
0.0
 11
78.0315925369519
 21
246.763032097957
 31
0.0
  0
LINE
  5
186
330
1F
100
AcDbEntity
  8
Sichtbare_Kanten_TC_020513_DIN_
  6
Continuous
 62
     7
100
AcDbLine
 10
97.67564740975
 20
224.39984612078
 30
0.0
 11
97.67564740975
 21
224.08658392099
 31
0.0
  0
LINE
  5
187
330
1F
100
AcDbEntity
  8
Sichtbare_Kanten_TC_020513_DIN_
  6
Continuous
 62
     7
100
AcDbLine
 10
97.67564740975
 20
224.08658392099
 30
0.0
 11
97.2244278908312
 21
224.39984612078
 31
0.0
  0
LINE
  5
188
330
1F
100
AcDbEntity
  8
Sichtbare_Kanten_TC_020513_DIN_
  6
Continuous
 62
     7
100
AcDbLine
 10
97.2244278908312
 20
224.39984612078
 30
0.0
 11
97.67564740975
 21
224.39984612078
 31
0.0
  0
LINE
  5
189
330
1F
100
AcDbEntity
  8
Sichtbare_Kanten_TC_020513_DIN_
  6
Continuous
 62
     7
100
AcDbLine
 10
97.7884522894797
 20
224.39984612078
 30
0.0
 11
97.7884522894797
 21
223.966157089928
 31
0.0
  0
LINE
  5
18A
330
1F
100
AcDbEntity
  8
Sichtbare_Kanten_TC_020513_DIN_
  6
Continuous
 62
     7
100
AcDbLine
 10
97.7884522894797
 20
223.966157089928
 30
0.0
 11
97.67564740975
 21
223.966157089928
 31
0.0
  0
LINE
  5
18B
330
1F
100
AcDbEntity
  8
Sichtbare_Kanten_TC_020513_DIN_
  6
Continuous
 62
     7
100
AcDbLine
 10
97.67564740975
 20
223.966157089928
 30
0.0
 11
97.0277815464375
 21
224.421949779646
 31
0.0
  0
LINE
  5
18C
330
1F
100
AcDbEntity
  8
Sichtbare_Kanten_TC_020513_DIN_
  6
Continuous
 62
     7
100
AcDbLine
 10
97.0277815464375
 20
224.421949779646
 30
0.0
 11
97.0277815464375
 21
224.522559537243
 31
0.0
  0
LINE
  5
18D
330
1F
100
AcDbEntity
  8
Sichtbare_Kanten_TC_020513_DIN_
  6
Continuous
 62
     7
100
AcDbLine
 10
97.0277815464375
 20
224.522559537243
 30
0.0
 11
97.67564740975
 21
224.522559537243
 31
0.0
  0
LINE
  5
18E
330
1F
100
AcDbEntity
  8
Sichtbare_Kanten_TC_020513_DIN_
  6
Continuous
 62
     7
100
AcDbLine
 10
97.67564740975
 20
224.522559537243
 30
0.0
 11
97.67564740975
 21
224.657468075839
 31
0.0
  0
LINE
  5
18F
330
1F
100
AcDbEntity
  8
Sichtbare_Kanten_TC_020513_DIN_
  6
Continuous
 62
     7
100
AcDbLine
 10
97.67564740975
 20
224.657468075839
 30
0.0
 11
97.7884522894797
 21
224.657468075839
 31
0.0
  0
LINE
  5
190
330
1F
100
AcDbEntity
  8
Sichtbare_Kanten_TC_020513_DIN_
  6
Continuous
 62
     7
100
AcDbLine
 10
97.7884522894797
 20
224.657468075839
 30
0.0
 11
97.7884522894797
 21
224.522559537243
 31
0.0
  0
LINE
  5
191
330
1F
100
AcDbEntity
  8
Sichtbare_Kanten_TC_020513_DIN_
  6
Continuous
 62
     7
100
AcDbLine
 10
97.7884522894797
 20
224.522559537243
 30
0.0
 11
98.0277815613386
 21
224.522559537243
 31
0.0
  0
LINE
  5
192
330
1F
100
AcDbEntity
  8
Sichtbare_Kanten_TC_020513_DIN_
  6
Continuous
 62
     7
100
AcDbLine
 10
98.0277815613386
 20
224.522559537243
 30
0.0
 11
98.0277815613386
 21
224.39984612078
 31
0.0
  0
LINE
  5
193
330
1F
100
AcDbEntity
  8
Sichtbare_Kanten_TC_020513_DIN_
  6
Continuous
 62
     7
100
AcDbLine
 10
98.0277815613386
 20
224.39984612078
 30
0.0
 11
97.7884522894797
 21
224.39984612078
 31
0.0
  0
LINE
  5
194
330
1F
100
AcDbEntity
  8
Sichtbare_Kanten_TC_020513_DIN_
  6
Continuous
 62
     7
100
AcDbLine
 10
98.0315925369519
 20
246.763032097957
 30
0.0
 11
98.0315925369519
 21
246.102208917379
 31
0.0
  0
LINE
  5
195
330
1F
100
AcDbEntity
  8
Sichtbare_Kanten_TC_020513_DIN_
  6
Continuous
 62
     7
100
AcDbLine
 10
97.3296108191745
 20
246.251599163507
 30
0.0
 11
97.3166535019082
 21
246.125074771378
 31
0.0
  0
LINE
  5
196
330
1F
100
AcDbEntity
  8
Sichtbare_Kanten_TC_020513_DIN_
  6
Continuous
 62
     7
100
AcDbLine
 10
97.9134522912891
 20
246.27294062724
 30
0.0
 11
97.9134522912891
 21
246.763032097957
 31
0.0
  0
LINE
  5
197
330
1F
100
AcDbEntity
  8
Sichtbare_Kanten_TC_020513_DIN_
  6
Continuous
 62
     7
100
AcDbLine
 10
97.9134522912891
 20
246.763032097957
 30
0.0
 11
98.0315925369519
 21
246.763032097957
 31
0.0
  0
LINE
  5
198
330
1F
100
AcDbEntity
  8
Sichtbare_Kanten_TC_020513_DIN_
  6
Continuous
 62
     7
100
AcDbLine
 10
97.6794583853632
 20
247.288184544807
 30
0.0
 11
97.6794583853632
 21
246.974922345017
 31
0.0
  0
LINE
  5
199
330
1F
100
AcDbEntity
  8
Sichtbare_Kanten_TC_020513_DIN_
  6
Continuous
 62
     7
100
AcDbLine
 10
97.6794583853632
 20
246.974922345017
 30
0.0
 11
97.2282388664444
 21
247.288184544807
 31
0.0
  0
LINE
  5
19A
330
1F
100
AcDbEntity
  8
Sichtbare_Kanten_TC_020513_DIN_
  6
Continuous
 62
     7
100
AcDbLine
 10
97.2282388664444
 20
247.288184544807
 30
0.0
 11
97.6794583853632
 21
247.288184544807
 31
0.0
  0
LINE
  5
19B
330
1F
100
AcDbEntity
  8
Sichtbare_Kanten_TC_020513_DIN_
  6
Continuous
 62
     7
100
AcDbLine
 10
97.792263265093
 20
247.288184544807
 30
0.0
 11
97.792263265093
 21
246.854495513954
 31
0.0
  0
LINE
  5
19C
330
1F
100
AcDbEntity
  8
Sichtbare_Kanten_TC_020513_DIN_
  6
Continuous
 62
     7
100
AcDbLine
 10
97.792263265093
 20
246.854495513954
 30
0.0
 11
97.6794583853632
 21
246.854495513954
 31
0.0
  0
LINE
  5
19D
330
1F
100
AcDbEntity
  8
Sichtbare_Kanten_TC_020513_DIN_
  6
Continuous
 62
     7
100
AcDbLine
 10
97.6794583853632
 20
246.854495513954
 30
0.0
 11
97.0315925220507
 21
247.310288203673
 31
0.0
  0
LINE
  5
19E
330
1F
100
AcDbEntity
  8
Sichtbare_Kanten_TC_020513_DIN_
  6
Continuous
 62
     7
100
AcDbLine
 10
97.0315925220507
 20
247.310288203673
 30
0.0
 11
97.0315925220507
 21
247.41089796127
 31
0.0
  0
LINE
  5
19F
330
1F
100
AcDbEntity
  8
Sichtbare_Kanten_TC_020513_DIN_
  6
Continuous
 62
     7
100
AcDbLine
 10
97.0315925220507
 20
247.41089796127
 30
0.0
 11
97.6794583853632
 21
247.41089796127
 31
0.0
  0
LINE
  5
1A0
330
1F
100
AcDbEntity
  8
Sichtbare_Kanten_TC_020513_DIN_
  6
Continuous
 62
     7
100
AcDbLine
 10
97.6794583853632
 20
247.41089796127
 30
0.0
 11
97.6794583853632
 21
247.545806499866
 31
0.0
  0
LINE
  5
1A1
330
1F
100
AcDbEntity
  8
Sichtbare_Kanten_TC_020513_DIN_
  6
Continuous
 62
     7
100
AcDbLine
 10
97.6794583853632
 20
247.545806499866
 30
0.0
 11
97.792263265093
 21
247.545806499866
 31
0.0
  0
LINE
  5
1A2
330
1F
100
AcDbEntity
  8
Sichtbare_Kanten_TC_020513_DIN_
  6
Continuous
 62
     7
100
AcDbLine
 10
97.792263265093
 20
247.545806499866
 30
0.0
 11
97.792263265093
 21
247.41089796127
 31
0.0
  0
LINE
  5
1A3
330
1F
100
AcDbEntity
  8
Sichtbare_Kanten_TC_020513_DIN_
  6
Continuous
 62
     7
100
AcDbLine
 10
97.792263265093
 20
247.41089796127
 30
0.0
 11
98.0315925369519
 21
247.41089796127
 31
0.0
  0
LINE
  5
1A4
330
1F
100
AcDbEntity
  8
Sichtbare_Kanten_TC_020513_DIN_
  6
Continuous
 62
     7
100
AcDbLine
 10
98.0315925369519
 20
247.41089796127
 30
0.0
 11
98.0315925369519
 21
247.288184544807
 31
0.0
  0
LINE
  5
1A5
330
1F
100
AcDbEntity
  8
Sichtbare_Kanten_TC_020513_DIN_
  6
Continuous
 62
     7
100
AcDbLine
 10
98.0315925369519
 20
247.288184544807
 30
0.0
 11
97.792263265093
 21
247.288184544807
 31
0.0
  0
LINE
  5
1A6
330
1F
100
AcDbEntity
  8
Sichtbare_Kanten_TC_020513_DIN_
  6
Continuous
 62
     7
100
AcDbLine
 10
78.0315925369519
 20
224.345730266315
 30
0.0
 11
77.2495803301771
 21
224.345730266315
 31
0.0
  0
LINE
  5
1A7
330
1F
100
AcDbEntity
  8
Sichtbare_Kanten_TC_020513_DIN_
  6
Continuous
 62
     7
100
AcDbLine
 10
77.397446186039
 20
224.10030343339
 30
0.0
 11
77.2785437452428
 21
224.10030343339
 31
0.0
  0
LINE
  5
1A8
330
1F
100
AcDbEntity
  8
Sichtbare_Kanten_TC_020513_DIN_
  6
Continuous
 62
     7
100
AcDbLine
 10
77.0277815463842
 20
224.389175388914
 30
0.0
 11
77.0277815463842
 21
224.468443682778
 31
0.0
  0
LINE
  5
1A9
330
1F
100
AcDbEntity
  8
Sichtbare_Kanten_TC_020513_DIN_
  6
Continuous
 62
     7
100
AcDbLine
 10
77.0277815463842
 20
224.468443682778
 30
0.0
 11
78.0315925369519
 21
224.468443682778
 31
0.0
  0
LINE
  5
1AA
330
1F
100
AcDbEntity
  8
Sichtbare_Kanten_TC_020513_DIN_
  6
Continuous
 62
     7
100
AcDbLine
 10
78.0315925369519
 20
224.468443682778
 30
0.0
 11
78.0315925369519
 21
224.345730266315
 31
0.0
  0
LINE
  5
1AB
330
1F
100
AcDbEntity
  8
Sichtbare_Kanten_TC_020513_DIN_
  6
Continuous
 62
     7
100
AcDbLine
 10
78.0315925369519
 20
247.234068690342
 30
0.0
 11
77.2495803301771
 21
247.234068690342
 31
0.0
  0
LINE
  5
1AC
330
1F
100
AcDbEntity
  8
Sichtbare_Kanten_TC_020513_DIN_
  6
Continuous
 62
     7
100
AcDbLine
 10
77.397446186039
 20
246.988641857417
 30
0.0
 11
77.2785437452428
 21
246.988641857417
 31
0.0
  0
LINE
  5
1AD
330
1F
100
AcDbEntity
  8
Sichtbare_Kanten_TC_020513_DIN_
  6
Continuous
 62
     7
100
AcDbLine
 10
77.0277815463842
 20
247.277513812941
 30
0.0
 11
77.0277815463842
 21
247.356782106805
 31
0.0
  0
LINE
  5
1AE
330
1F
100
AcDbEntity
  8
Sichtbare_Kanten_TC_020513_DIN_
  6
Continuous
 62
     7
100
AcDbLine
 10
77.0277815463842
 20
247.356782106805
 30
0.0
 11
78.0315925369519
 21
247.356782106805
 31
0.0
  0
LINE
  5
1AF
330
1F
100
AcDbEntity
  8
Sichtbare_Kanten_TC_020513_DIN_
  6
Continuous
 62
     7
100
AcDbLine
 10
78.0315925369519
 20
247.356782106805
 30
0.0
 11
78.0315925369519
 21
247.234068690342
 31
0.0
  0
LINE
  5
1B0
330
1F
100
AcDbEntity
  8
Sichtbare_Kanten_TC_020513_DIN_
  6
Continuous
 62
     7
100
AcDbLine
 10
88.2777815604073
 20
249.586965018676
 30
0.0
 11
88.2777815604073
 21
252.586965018676
 31
0.0
  0
LINE
  5
1B1
330
1F
100
AcDbEntity
  8
Sichtbare_Kanten_TC_020513_DIN_
  6
Continuous
 62
     7
100
AcDbLine
 10
88.2777815604073
 20
218.586965018676
 30
0.0
 11
88.2777815604073
 21
221.586965018676
 31
0.0
  0
LINE
  5
1B2
330
1F
100
AcDbEntity
  8
Sichtbare_Kanten_TC_020513_DIN_
  6
Continuous
 62
     7
100
AcDbLine
 10
88.2777815604073
 20
221.586965018676
 30
0.0
 11
91.2777815604073
 21
221.586965018676
 31
0.0
  0
LINE
  5
1B3
330
1F
100
AcDbEntity
  8
Sichtbare_Kanten_TC_020513_DIN_
  6
Continuous
 62
     7
100
AcDbLine
 10
91.2777815604073
 20
221.586965018676
 30
0.0
 11
91.2777815604073
 21
218.586965018676
 31
0.0
  0
LINE
  5
1B4
330
1F
100
AcDbEntity
  8
Sichtbare_Kanten_TC_020513_DIN_
  6
Continuous
 62
     7
100
AcDbLine
 10
91.2777815604073
 20
252.586965018676
 30
0.0
 11
91.2777815604073
 21
249.586965018676
 31
0.0
  0
LINE
  5
1B5
330
1F
100
AcDbEntity
  8
Sichtbare_Kanten_TC_020513_DIN_
  6
Continuous
 62
     7
100
AcDbLine
 10
91.2777815604073
 20
249.586965018676
 30
0.0
 11
88.2777815604073
 21
249.586965018676
 31
0.0
  0
LINE
  5
1B6
330
1F
100
AcDbEntity
  8
Sichtbare_Kanten_TC_020513_DIN_
  6
Continuous
 62
     7
100
AcDbLine
 10
72.5277815604073
 20
252.586965018676
 30
0.0
 11
102.527781560407
 21
252.586965018676
 31
0.0
  0
LINE
  5
1B7
330
1F
100
AcDbEntity
  8
Sichtbare_Kanten_TC_020513_DIN_
  6
Continuous
 62
     7
100
AcDbLine
 10
102.527781560407
 20
218.586965018676
 30
0.0
 11
72.5277815604073
 21
218.586965018676
 31
0.0
  0
LINE
  5
1B8
330
1F
100
AcDbEntity
  8
Sichtbare_Kanten_TC_020513_DIN_
  6
Continuous
 62
     7
100
AcDbLine
 10
72.5277815604073
 20
240.086965018675
 30
0.0
 11
72.5277815604073
 21
252.586965018676
 31
0.0
  0
LINE
  5
1B9
330
1F
100
AcDbEntity
  8
Sichtbare_Kanten_TC_020513_DIN_
  6
Continuous
 62
     7
100
AcDbLine
 10
72.5277815604073
 20
218.586965018676
 30
0.0
 11
72.5277815604073
 21
231.086965018675
 31
0.0
  0
LINE
  5
1BA
330
1F
100
AcDbEntity
  8
Sichtbare_Kanten_TC_020513_DIN_
  6
Continuous
 62
     7
100
AcDbLine
 10
102.527781560407
 20
231.086965018675
 30
0.0
 11
102.527781560407
 21
218.586965018676
 31
0.0
  0
LINE
  5
1BB
330
1F
100
AcDbEntity
  8
Sichtbare_Kanten_TC_020513_DIN_
  6
Continuous
 62
     7
100
AcDbLine
 10
102.527781560407
 20
252.586965018676
 30
0.0
 11
102.527781560407
 21
240.086965018675
 31
0.0
  0
LINE
  5
1BC
330
1F
100
AcDbEntity
  8
Sichtbare_Kanten_TC_020513_DIN_
  6
Continuous
 62
     7
100
AcDbLine
 10
112.527781560407
 20
239.086965018681
 30
0.0
 11
112.527781560407
 21
232.086965018681
 31
0.0
  0
LINE
  5
1BD
330
1F
100
AcDbEntity
  8
Sichtbare_Kanten_TC_020513_DIN_
  6
Continuous
 62
     7
100
AcDbLine
 10
96.5277815604073
 20
246.086965018675
 30
0.0
 11
96.5277815604073
 21
225.086965018675
 31
0.0
  0
LINE
  5
1BE
330
1F
100
AcDbEntity
  8
Sichtbare_Kanten_TC_020513_DIN_
  6
Continuous
 62
     7
100
AcDbLine
 10
62.5277815604073
 20
232.086965018681
 30
0.0
 11
62.5277815604073
 21
239.086965018681
 31
0.0
  0
LINE
  5
1BF
330
1F
100
AcDbEntity
  8
Sichtbare_Kanten_TC_020513_DIN_
  6
Continuous
 62
     7
100
AcDbLine
 10
78.5277815604073
 20
225.086965018675
 30
0.0
 11
78.5277815604073
 21
246.086965018675
 31
0.0
  0
LINE
  5
1C0
330
1F
100
AcDbEntity
  8
Sichtbare_Kanten_TC_020513_DIN_
  6
Continuous
 62
     7
100
AcDbLine
 10
86.7777815604073
 20
252.586965018676
 30
0.0
 11
86.7777815604073
 21
249.586965018676
 31
0.0
  0
LINE
  5
1C1
330
1F
100
AcDbEntity
  8
Sichtbare_Kanten_TC_020513_DIN_
  6
Continuous
 62
     7
100
AcDbLine
 10
86.7777815604073
 20
249.586965018676
 30
0.0
 11
83.7777815604073
 21
249.586965018676
 31
0.0
  0
LINE
  5
1C2
330
1F
100
AcDbEntity
  8
Sichtbare_Kanten_TC_020513_DIN_
  6
Continuous
 62
     7
100
AcDbLine
 10
83.7777815604073
 20
249.586965018676
 30
0.0
 11
83.7777815604073
 21
252.586965018676
 31
0.0
  0
LINE
  5
1C3
330
1F
100
AcDbEntity
  8
Sichtbare_Kanten_TC_020513_DIN_
  6
Continuous
 62
     7
100
AcDbLine
 10
82.0277815604073
 20
252.586965018676
 30
0.0
 11
82.0277815604073
 21
249.586965018676
 31
0.0
  0
LINE
  5
1C4
330
1F
100
AcDbEntity
  8
Sichtbare_Kanten_TC_020513_DIN_
  6
Continuous
 62
     7
100
AcDbLine
 10
82.0277815604073
 20
249.586965018676
 30
0.0
 11
76.5277815604073
 21
249.586965018676
 31
0.0
  0
LINE
  5
1C5
330
1F
100
AcDbEntity
  8
Sichtbare_Kanten_TC_020513_DIN_
  6
Continuous
 62
     7
100
AcDbLine
 10
76.5277815604073
 20
249.586965018676
 30
0.0
 11
76.5277815604073
 21
252.586965018676
 31
0.0
  0
LINE
  5
1C6
330
1F
100
AcDbEntity
  8
Sichtbare_Kanten_TC_020513_DIN_
  6
Continuous
 62
     7
100
AcDbLine
 10
98.5277815604073
 20
252.586965018676
 30
0.0
 11
98.5277815604073
 21
249.586965018676
 31
0.0
  0
LINE
  5
1C7
330
1F
100
AcDbEntity
  8
Sichtbare_Kanten_TC_020513_DIN_
  6
Continuous
 62
     7
100
AcDbLine
 10
98.5277815604073
 20
249.586965018676
 30
0.0
 11
93.0277815604073
 21
249.586965018676
 31
0.0
  0
LINE
  5
1C8
330
1F
100
AcDbEntity
  8
Sichtbare_Kanten_TC_020513_DIN_
  6
Continuous
 62
     7
100
AcDbLine
 10
93.0277815604073
 20
249.586965018676
 30
0.0
 11
93.0277815604073
 21
252.586965018676
 31
0.0
  0
LINE
  5
1C9
330
1F
100
AcDbEntity
  8
Sichtbare_Kanten_TC_020513_DIN_
  6
Continuous
 62
     7
100
AcDbLine
 10
74.5277815604073
 20
240.086965018675
 30
0.0
 11
74.5277815604073
 21
248.086965018676
 31
0.0
  0
LINE
  5
1CA
330
1F
100
AcDbEntity
  8
Sichtbare_Kanten_TC_020513_DIN_
  6
Continuous
 62
     7
100
AcDbLine
 10
74.5277815604073
 20
248.086965018676
 30
0.0
 11
76.5277815604073
 21
248.086965018676
 31
0.0
  0
LINE
  5
1CB
330
1F
100
AcDbEntity
  8
Sichtbare_Kanten_TC_020513_DIN_
  6
Continuous
 62
     7
100
AcDbLine
 10
76.5277815604073
 20
248.086965018676
 30
0.0
 11
76.5277815604073
 21
223.086965018676
 31
0.0
  0
LINE
  5
1CC
330
1F
100
AcDbEntity
  8
Sichtbare_Kanten_TC_020513_DIN_
  6
Continuous
 62
     7
100
AcDbLine
 10
76.5277815604073
 20
223.086965018676
 30
0.0
 11
74.5277815604073
 21
223.086965018676
 31
0.0
  0
LINE
  5
1CD
330
1F
100
AcDbEntity
  8
Sichtbare_Kanten_TC_020513_DIN_
  6
Continuous
 62
     7
100
AcDbLine
 10
74.5277815604073
 20
223.086965018676
 30
0.0
 11
74.5277815604073
 21
231.086965018675
 31
0.0
  0
LINE
  5
1CE
330
1F
100
AcDbEntity
  8
Sichtbare_Kanten_TC_020513_DIN_
  6
Continuous
 62
     7
100
AcDbLine
 10
100.527781560407
 20
231.086965018675
 30
0.0
 11
100.527781560407
 21
223.086965018676
 31
0.0
  0
LINE
  5
1CF
330
1F
100
AcDbEntity
  8
Sichtbare_Kanten_TC_020513_DIN_
  6
Continuous
 62
     7
100
AcDbLine
 10
100.527781560407
 20
223.086965018676
 30
0.0
 11
98.5277815604073
 21
223.086965018676
 31
0.0
  0
LINE
  5
1D0
330
1F
100
AcDbEntity
  8
Sichtbare_Kanten_TC_020513_DIN_
  6
Continuous
 62
     7
100
AcDbLine
 10
98.5277815604073
 20
223.086965018676
 30
0.0
 11
98.5277815604073
 21
248.086965018676
 31
0.0
  0
LINE
  5
1D1
330
1F
100
AcDbEntity
  8
Sichtbare_Kanten_TC_020513_DIN_
  6
Continuous
 62
     7
100
AcDbLine
 10
98.5277815604073
 20
248.086965018676
 30
0.0
 11
100.527781560407
 21
248.086965018676
 31
0.0
  0
LINE
  5
1D2
330
1F
100
AcDbEntity
  8
Sichtbare_Kanten_TC_020513_DIN_
  6
Continuous
 62
     7
100
AcDbLine
 10
100.527781560407
 20
248.086965018676
 30
0.0
 11
100.527781560407
 21
240.086965018675
 31
0.0
  0
LINE
  5
1D3
330
1F
100
AcDbEntity
  8
Sichtbare_Kanten_TC_020513_DIN_
  6
Continuous
 62
     7
100
AcDbLine
 10
76.5277815604073
 20
218.586965018676
 30
0.0
 11
76.5277815604073
 21
221.586965018676
 31
0.0
  0
LINE
  5
1D4
330
1F
100
AcDbEntity
  8
Sichtbare_Kanten_TC_020513_DIN_
  6
Continuous
 62
     7
100
AcDbLine
 10
76.5277815604073
 20
221.586965018676
 30
0.0
 11
82.0277815604073
 21
221.586965018676
 31
0.0
  0
LINE
  5
1D5
330
1F
100
AcDbEntity
  8
Sichtbare_Kanten_TC_020513_DIN_
  6
Continuous
 62
     7
100
AcDbLine
 10
82.0277815604073
 20
221.586965018676
 30
0.0
 11
82.0277815604073
 21
218.586965018676
 31
0.0
  0
LINE
  5
1D6
330
1F
100
AcDbEntity
  8
Sichtbare_Kanten_TC_020513_DIN_
  6
Continuous
 62
     7
100
AcDbLine
 10
93.0277815604073
 20
218.586965018676
 30
0.0
 11
93.0277815604073
 21
221.586965018676
 31
0.0
  0
LINE
  5
1D7
330
1F
100
AcDbEntity
  8
Sichtbare_Kanten_TC_020513_DIN_
  6
Continuous
 62
     7
100
AcDbLine
 10
93.0277815604073
 20
221.586965018676
 30
0.0
 11
98.5277815604073
 21
221.586965018676
 31
0.0
  0
LINE
  5
1D8
330
1F
100
AcDbEntity
  8
Sichtbare_Kanten_TC_020513_DIN_
  6
Continuous
 62
     7
100
AcDbLine
 10
98.5277815604073
 20
221.586965018676
 30
0.0
 11
98.5277815604073
 21
218.586965018676
 31
0.0
  0
LINE
  5
1D9
330
1F
100
AcDbEntity
  8
Sichtbare_Kanten_TC_020513_DIN_
  6
Continuous
 62
     7
100
AcDbLine
 10
83.7777815604073
 20
218.586965018676
 30
0.0
 11
83.7777815604073
 21
221.586965018676
 31
0.0
  0
LINE
  5
1DA
330
1F
100
AcDbEntity
  8
Sichtbare_Kanten_TC_020513_DIN_
  6
Continuous
 62
     7
100
AcDbLine
 10
83.7777815604073
 20
221.586965018676
 30
0.0
 11
86.7777815604073
 21
221.586965018676
 31
0.0
  0
LINE
  5
1DB
330
1F
100
AcDbEntity
  8
Sichtbare_Kanten_TC_020513_DIN_
  6
Continuous
 62
     7
100
AcDbLine
 10
86.7777815604073
 20
221.586965018676
 30
0.0
 11
86.7777815604073
 21
218.586965018676
 31
0.0
  0
LINE
  5
1DC
330
1F
100
AcDbEntity
  8
Sichtbare_Kanten_TC_020513_DIN_
  6
Continuous
 62
     7
100
AcDbLine
 10
71.2777815604073
 20
240.086965018677
 30
0.0
 11
67.5277815604073
 21
240.086965018677
 31
0.0
  0
LINE
  5
1DD
330
1F
100
AcDbEntity
  8
Sichtbare_Kanten_TC_020513_DIN_
  6
Continuous
 62
     7
100
AcDbLine
 10
67.5277815604073
 20
240.086965018677
 30
0.0
 11
67.5277815604073
 21
241.086965018677
 31
0.0
  0
LINE
  5
1DE
330
1F
100
AcDbEntity
  8
Sichtbare_Kanten_TC_020513_DIN_
  6
Continuous
 62
     7
100
AcDbLine
 10
72.5277815604073
 20
241.086965018677
 30
0.0
 11
67.5277815604073
 21
241.086965018677
 31
0.0
  0
LINE
  5
1DF
330
1F
100
AcDbEntity
  8
Sichtbare_Kanten_TC_020513_DIN_
  6
Continuous
 62
     7
100
AcDbLine
 10
71.2777815604073
 20
231.086965018677
 30
0.0
 11
67.5277815604073
 21
231.086965018677
 31
0.0
  0
LINE
  5
1E0
330
1F
100
AcDbEntity
  8
Sichtbare_Kanten_TC_020513_DIN_
  6
Continuous
 62
     7
100
AcDbLine
 10
72.5277815604073
 20
230.086965018677
 30
0.0
 11
67.5277815604073
 21
230.086965018677
 31
0.0
  0
LINE
  5
1E1
330
1F
100
AcDbEntity
  8
Sichtbare_Kanten_TC_020513_DIN_
  6
Continuous
 62
     7
100
AcDbLine
 10
67.5277815604073
 20
230.086965018677
 30
0.0
 11
67.5277815604073
 21
231.086965018677
 31
0.0
  0
LINE
  5
1E2
330
1F
100
AcDbEntity
  8
Sichtbare_Kanten_TC_020513_DIN_
  6
Continuous
 62
     7
100
AcDbLine
 10
72.5277815604073
 20
231.086965018675
 30
0.0
 11
71.2777815604073
 21
231.086965018677
 31
0.0
  0
LINE
  5
1E3
330
1F
100
AcDbEntity
  8
Sichtbare_Kanten_TC_020513_DIN_
  6
Continuous
 62
     7
100
AcDbLine
 10
71.2777815604073
 20
240.086965018677
 30
0.0
 11
72.5277815604073
 21
240.086965018675
 31
0.0
  0
LINE
  5
1E4
330
1F
100
AcDbEntity
  8
Sichtbare_Kanten_TC_020513_DIN_
  6
Continuous
 62
     7
100
AcDbLine
 10
71.2777815604073
 20
240.086965018677
 30
0.0
 11
71.2777815604073
 21
231.086965018677
 31
0.0
  0
LINE
  5
1E5
330
1F
100
AcDbEntity
  8
Sichtbare_Kanten_TC_020513_DIN_
  6
Continuous
 62
     7
100
AcDbLine
 10
74.5287815604073
 20
231.086965018676
 30
0.0
 11
74.5277815604073
 21
231.086965018675
 31
0.0
  0
LINE
  5
1E6
330
1F
100
AcDbEntity
  8
Sichtbare_Kanten_TC_020513_DIN_
  6
Continuous
 62
     7
100
AcDbLine
 10
74.5287815604073
 20
228.086965018676
 30
0.0
 11
74.5287815604073
 21
231.086965018676
 31
0.0
  0
LINE
  5
1E7
330
1F
100
AcDbEntity
  8
Sichtbare_Kanten_TC_020513_DIN_
  6
Continuous
 62
     7
100
AcDbLine
 10
76.5277815604073
 20
228.086965018676
 30
0.0
 11
74.5287815604073
 21
228.086965018676
 31
0.0
  0
LINE
  5
1E8
330
1F
100
AcDbEntity
  8
Sichtbare_Kanten_TC_020513_DIN_
  6
Continuous
 62
     7
100
AcDbLine
 10
74.5287815604073
 20
243.086965018676
 30
0.0
 11
76.5277815604073
 21
243.086965018676
 31
0.0
  0
LINE
  5
1E9
330
1F
100
AcDbEntity
  8
Sichtbare_Kanten_TC_020513_DIN_
  6
Continuous
 62
     7
100
AcDbLine
 10
74.5287815604073
 20
240.086965018676
 30
0.0
 11
74.5287815604073
 21
243.086965018676
 31
0.0
  0
LINE
  5
1EA
330
1F
100
AcDbEntity
  8
Sichtbare_Kanten_TC_020513_DIN_
  6
Continuous
 62
     7
100
AcDbLine
 10
74.5277815604073
 20
240.086965018675
 30
0.0
 11
74.5287815604073
 21
240.086965018676
 31
0.0
  0
LINE
  5
1EB
330
1F
100
AcDbEntity
  8
Sichtbare_Kanten_TC_020513_DIN_
  6
Continuous
 62
     7
100
AcDbLine
 10
71.3195536762056
 20
247.586965018681
 30
0.0
 11
72.5277815604073
 21
247.586965018677
 31
0.0
  0
LINE
  5
1EC
330
1F
100
AcDbEntity
  8
Sichtbare_Kanten_TC_020513_DIN_
  6
Continuous
 62
     7
100
AcDbLine
 10
71.3195536762056
 20
252.586965018681
 30
0.0
 11
72.5277815604073
 21
252.586965018676
 31
0.0
  0
LINE
  5
1ED
330
1F
100
AcDbEntity
  8
Sichtbare_Kanten_TC_020513_DIN_
  6
Continuous
 62
     7
100
AcDbLine
 10
71.3195536762056
 20
247.586965018681
 30
0.0
 11
71.3195536762056
 21
252.586965018681
 31
0.0
  0
LINE
  5
1EE
330
1F
100
AcDbEntity
  8
Sichtbare_Kanten_TC_020513_DIN_
  6
Continuous
 62
     7
100
AcDbLine
 10
71.3195536762056
 20
223.586965018681
 30
0.0
 11
72.5277815604073
 21
223.586965018677
 31
0.0
  0
LINE
  5
1EF
330
1F
100
AcDbEntity
  8
Sichtbare_Kanten_TC_020513_DIN_
  6
Continuous
 62
     7
100
AcDbLine
 10
71.3195536762056
 20
218.586965018681
 30
0.0
 11
71.3195536762056
 21
223.586965018681
 31
0.0
  0
LINE
  5
1F0
330
1F
100
AcDbEntity
  8
Sichtbare_Kanten_TC_020513_DIN_
  6
Continuous
 62
     7
100
AcDbLine
 10
71.3195536762056
 20
218.586965018681
 30
0.0
 11
72.5277815604073
 21
218.586965018676
 31
0.0
  0
LINE
  5
1F1
330
1F
100
AcDbEntity
  8
Sichtbare_Kanten_TC_020513_DIN_
  6
Continuous
 62
     7
100
AcDbLine
 10
71.2777815604073
 20
232.086965018681
 30
0.0
 11
71.2069351600734
 21
232.086965018681
 31
0.0
  0
LINE
  5
1F2
330
1F
100
AcDbEntity
  8
Sichtbare_Kanten_TC_020513_DIN_
  6
Continuous
 62
     7
100
AcDbLine
 10
69.897793657876
 20
232.086965018681
 30
0.0
 11
62.4777815604073
 21
232.086965018681
 31
0.0
  0
LINE
  5
1F3
330
1F
100
AcDbEntity
  8
Sichtbare_Kanten_TC_020513_DIN_
  6
Continuous
 62
     7
100
AcDbLine
 10
62.4777815604073
 20
232.086965018681
 30
0.0
 11
62.4777815604073
 21
222.086965018681
 31
0.0
  0
LINE
  5
1F4
330
1F
100
AcDbEntity
  8
Sichtbare_Kanten_TC_020513_DIN_
  6
Continuous
 62
     7
100
AcDbLine
 10
65.9777815604073
 20
218.586965018681
 30
0.0
 11
71.3195536762056
 21
218.586965018681
 31
0.0
  0
LINE
  5
1F5
330
1F
100
AcDbEntity
  8
Sichtbare_Kanten_TC_020513_DIN_
  6
Continuous
 62
     7
100
AcDbLine
 10
72.5277815604073
 20
245.586965018679
 30
0.0
 11
71.2777815604073
 21
245.586965018679
 31
0.0
  0
LINE
  5
1F6
330
1F
100
AcDbEntity
  8
Sichtbare_Kanten_TC_020513_DIN_
  6
Continuous
 62
     7
100
AcDbLine
 10
71.2777815604073
 20
225.586965018679
 30
0.0
 11
71.2777815604073
 21
230.086965018679
 31
0.0
  0
LINE
  5
1F7
330
1F
100
AcDbEntity
  8
Sichtbare_Kanten_TC_020513_DIN_
  6
Continuous
 62
     7
100
AcDbLine
 10
71.2777815604073
 20
241.086965018679
 30
0.0
 11
71.2777815604073
 21
245.586965018679
 31
0.0
  0
LINE
  5
1F8
330
1F
100
AcDbEntity
  8
Sichtbare_Kanten_TC_020513_DIN_
  6
Continuous
 62
     7
100
AcDbLine
 10
72.5277815604073
 20
225.586965018679
 30
0.0
 11
71.2777815604073
 21
225.586965018679
 31
0.0
  0
LINE
  5
1F9
330
1F
100
AcDbEntity
  8
Sichtbare_Kanten_TC_020513_DIN_
  6
Continuous
 62
     7
100
AcDbLine
 10
71.3195536762056
 20
252.586965018681
 30
0.0
 11
65.9777815604073
 21
252.586965018681
 31
0.0
  0
LINE
  5
1FA
330
1F
100
AcDbEntity
  8
Sichtbare_Kanten_TC_020513_DIN_
  6
Continuous
 62
     7
100
AcDbLine
 10
62.4777815604073
 20
249.086965018681
 30
0.0
 11
62.4777815604073
 21
239.086965018681
 31
0.0
  0
LINE
  5
1FB
330
1F
100
AcDbEntity
  8
Sichtbare_Kanten_TC_020513_DIN_
  6
Continuous
 62
     7
100
AcDbLine
 10
62.4777815604073
 20
239.086965018681
 30
0.0
 11
69.897793657876
 21
239.086965018681
 31
0.0
  0
LINE
  5
1FC
330
1F
100
AcDbEntity
  8
Sichtbare_Kanten_TC_020513_DIN_
  6
Continuous
 62
     7
100
AcDbLine
 10
71.2069351600734
 20
239.086965018681
 30
0.0
 11
71.2777815604073
 21
239.086965018681
 31
0.0
  0
LINE
  5
1FD
330
1F
100
AcDbEntity
  8
Sichtbare_Kanten_TC_020513_DIN_
  6
Continuous
 62
     7
100
AcDbLine
 10
103.777781560407
 20
240.086965018677
 30
0.0
 11
107.527781560407
 21
240.086965018677
 31
0.0
  0
LINE
  5
1FE
330
1F
100
AcDbEntity
  8
Sichtbare_Kanten_TC_020513_DIN_
  6
Continuous
 62
     7
100
AcDbLine
 10
107.527781560407
 20
240.086965018677
 30
0.0
 11
107.527781560407
 21
241.086965018677
 31
0.0
  0
LINE
  5
1FF
330
1F
100
AcDbEntity
  8
Sichtbare_Kanten_TC_020513_DIN_
  6
Continuous
 62
     7
100
AcDbLine
 10
102.527781560407
 20
241.086965018677
 30
0.0
 11
107.527781560407
 21
241.086965018677
 31
0.0
  0
LINE
  5
200
330
1F
100
AcDbEntity
  8
Sichtbare_Kanten_TC_020513_DIN_
  6
Continuous
 62
     7
100
AcDbLine
 10
103.777781560407
 20
231.086965018677
 30
0.0
 11
107.527781560407
 21
231.086965018677
 31
0.0
  0
LINE
  5
201
330
1F
100
AcDbEntity
  8
Sichtbare_Kanten_TC_020513_DIN_
  6
Continuous
 62
     7
100
AcDbLine
 10
102.527781560407
 20
230.086965018677
 30
0.0
 11
107.527781560407
 21
230.086965018677
 31
0.0
  0
LINE
  5
202
330
1F
100
AcDbEntity
  8
Sichtbare_Kanten_TC_020513_DIN_
  6
Continuous
 62
     7
100
AcDbLine
 10
107.527781560407
 20
230.086965018677
 30
0.0
 11
107.527781560407
 21
231.086965018677
 31
0.0
  0
LINE
  5
203
330
1F
100
AcDbEntity
  8
Sichtbare_Kanten_TC_020513_DIN_
  6
Continuous
 62
     7
100
AcDbLine
 10
102.527781560407
 20
240.086965018675
 30
0.0
 11
103.777781560407
 21
240.086965018677
 31
0.0
  0
LINE
  5
204
330
1F
100
AcDbEntity
  8
Sichtbare_Kanten_TC_020513_DIN_
  6
Continuous
 62
     7
100
AcDbLine
 10
103.777781560407
 20
231.086965018677
 30
0.0
 11
102.527781560407
 21
231.086965018675
 31
0.0
  0
LINE
  5
205
330
1F
100
AcDbEntity
  8
Sichtbare_Kanten_TC_020513_DIN_
  6
Continuous
 62
     7
100
AcDbLine
 10
103.777781560407
 20
231.086965018677
 30
0.0
 11
103.777781560407
 21
240.086965018677
 31
0.0
  0
LINE
  5
206
330
1F
100
AcDbEntity
  8
Sichtbare_Kanten_TC_020513_DIN_
  6
Continuous
 62
     7
100
AcDbLine
 10
70.3577815604073
 20
239.555591985274
 30
0.0
 11
71.2777815604073
 21
239.555591985274
 31
0.0
  0
LINE
  5
207
330
1F
100
AcDbEntity
  8
Sichtbare_Kanten_TC_020513_DIN_
  6
Continuous
 62
     7
100
AcDbLine
 10
71.2777815604073
 20
231.61833805208
 30
0.0
 11
70.3577815604073
 21
231.61833805208
 31
0.0
  0
LINE
  5
208
330
1F
100
AcDbEntity
  8
Sichtbare_Kanten_TC_020513_DIN_
  6
Continuous
 62
     7
100
AcDbLine
 10
70.3577815604073
 20
231.61833805208
 30
0.0
 11
70.3577815604073
 21
231.086965018677
 31
0.0
  0
LINE
  5
209
330
1F
100
AcDbEntity
  8
Sichtbare_Kanten_TC_020513_DIN_
  6
Continuous
 62
     7
100
AcDbLine
 10
70.3577815604073
 20
240.086965018677
 30
0.0
 11
70.3577815604073
 21
239.555591985274
 31
0.0
  0
LINE
  5
20A
330
1F
100
AcDbEntity
  8
Sichtbare_Kanten_TC_020513_DIN_
  6
Continuous
 62
     7
100
AcDbLine
 10
67.4723152611886
 20
239.086965018681
 30
0.0
 11
67.4723152611886
 21
236.086965018677
 31
0.0
  0
LINE
  5
20B
330
1F
100
AcDbEntity
  8
Sichtbare_Kanten_TC_020513_DIN_
  6
Continuous
 62
     7
100
AcDbLine
 10
67.4723152611886
 20
235.086965018677
 30
0.0
 11
67.4723152611886
 21
232.086965018681
 31
0.0
  0
LINE
  5
20C
330
1F
100
AcDbEntity
  8
Sichtbare_Kanten_TC_020513_DIN_
  6
Continuous
 62
     7
100
AcDbLine
 10
69.6636839287038
 20
239.086965018681
 30
0.0
 11
69.6636839287038
 21
232.086965018681
 31
0.0
  0
LINE
  5
20D
330
1F
100
AcDbEntity
  8
Sichtbare_Kanten_TC_020513_DIN_
  6
Continuous
 62
     7
100
AcDbLine
 10
67.2906494346966
 20
233.336965018679
 30
0.0
 11
67.29694036062
 21
233.336965018678
 31
0.0
  0
LINE
  5
20E
330
1F
100
AcDbEntity
  8
Sichtbare_Kanten_TC_020513_DIN_
  6
Continuous
 62
     7
100
AcDbLine
 10
68.0277815604073
 20
235.086965018677
 30
0.0
 11
68.0277815604073
 21
236.086965018677
 31
0.0
  0
LINE
  5
20F
330
1F
100
AcDbEntity
  8
Sichtbare_Kanten_TC_020513_DIN_
  6
Continuous
 62
     7
100
AcDbLine
 10
67.29694036062
 20
237.836965018678
 30
0.0
 11
67.2906494346966
 21
237.836965018679
 31
0.0
  0
LINE
  5
210
330
1F
100
AcDbEntity
  8
Sichtbare_Kanten_TC_020513_DIN_
  6
Continuous
 62
     7
100
AcDbLine
 10
67.4723152611886
 20
236.086965018677
 30
0.0
 11
68.0277815604073
 21
236.086965018677
 31
0.0
  0
LINE
  5
211
330
1F
100
AcDbEntity
  8
Sichtbare_Kanten_TC_020513_DIN_
  6
Continuous
 62
     7
100
AcDbLine
 10
67.4723152611886
 20
236.086965018677
 30
0.0
 11
67.1761878373971
 21
236.086965018678
 31
0.0
  0
LINE
  5
212
330
1F
100
AcDbEntity
  8
Sichtbare_Kanten_TC_020513_DIN_
  6
Continuous
 62
     7
100
AcDbLine
 10
67.1761878373971
 20
235.086965018678
 30
0.0
 11
67.4723152611886
 21
235.086965018677
 31
0.0
  0
LINE
  5
213
330
1F
100
AcDbEntity
  8
Sichtbare_Kanten_TC_020513_DIN_
  6
Continuous
 62
     7
100
AcDbLine
 10
68.0277815604073
 20
235.086965018677
 30
0.0
 11
67.4723152611886
 21
235.086965018677
 31
0.0
  0
LINE
  5
214
330
1F
100
AcDbEntity
  8
Sichtbare_Kanten_TC_020513_DIN_
  6
Continuous
 62
     7
100
AcDbLine
 10
72.5277815604073
 20
240.086965018675
 30
0.0
 11
74.5277815604073
 21
240.086965018675
 31
0.0
  0
LINE
  5
215
330
1F
100
AcDbEntity
  8
Sichtbare_Kanten_TC_020513_DIN_
  6
Continuous
 62
     7
100
AcDbLine
 10
74.5277815604073
 20
231.086965018675
 30
0.0
 11
72.5277815604073
 21
231.086965018675
 31
0.0
  0
LINE
  5
216
330
1F
100
AcDbEntity
  8
Sichtbare_Kanten_TC_020513_DIN_
  6
Continuous
 62
     7
100
AcDbLine
 10
103.777781560407
 20
225.586965018679
 30
0.0
 11
103.777781560407
 21
230.086965018679
 31
0.0
  0
LINE
  5
217
330
1F
100
AcDbEntity
  8
Sichtbare_Kanten_TC_020513_DIN_
  6
Continuous
 62
     7
100
AcDbLine
 10
103.777781560407
 20
241.086965018679
 30
0.0
 11
103.777781560407
 21
245.586965018679
 31
0.0
  0
LINE
  5
218
330
1F
100
AcDbEntity
  8
Sichtbare_Kanten_TC_020513_DIN_
  6
Continuous
 62
     7
100
AcDbLine
 10
102.527781560407
 20
225.586965018679
 30
0.0
 11
103.777781560407
 21
225.586965018679
 31
0.0
  0
LINE
  5
219
330
1F
100
AcDbEntity
  8
Sichtbare_Kanten_TC_020513_DIN_
  6
Continuous
 62
     7
100
AcDbLine
 10
102.527781560407
 20
245.586965018679
 30
0.0
 11
103.777781560407
 21
245.586965018679
 31
0.0
  0
LINE
  5
21A
330
1F
100
AcDbEntity
  8
Sichtbare_Kanten_TC_020513_DIN_
  6
Continuous
 62
     7
100
AcDbLine
 10
103.736009444609
 20
247.586965018681
 30
0.0
 11
102.527781560407
 21
247.586965018677
 31
0.0
  0
LINE
  5
21B
330
1F
100
AcDbEntity
  8
Sichtbare_Kanten_TC_020513_DIN_
  6
Continuous
 62
     7
100
AcDbLine
 10
103.736009444609
 20
252.586965018681
 30
0.0
 11
103.736009444609
 21
247.586965018681
 31
0.0
  0
LINE
  5
21C
330
1F
100
AcDbEntity
  8
Sichtbare_Kanten_TC_020513_DIN_
  6
Continuous
 62
     7
100
AcDbLine
 10
103.736009444609
 20
252.586965018681
 30
0.0
 11
102.527781560407
 21
252.586965018676
 31
0.0
  0
LINE
  5
21D
330
1F
100
AcDbEntity
  8
Sichtbare_Kanten_TC_020513_DIN_
  6
Continuous
 62
     7
100
AcDbLine
 10
112.577781560407
 20
249.086965018681
 30
0.0
 11
112.577781560407
 21
239.086965018681
 31
0.0
  0
LINE
  5
21E
330
1F
100
AcDbEntity
  8
Sichtbare_Kanten_TC_020513_DIN_
  6
Continuous
 62
     7
100
AcDbLine
 10
103.736009444609
 20
252.586965018681
 30
0.0
 11
109.077781560407
 21
252.586965018681
 31
0.0
  0
LINE
  5
21F
330
1F
100
AcDbEntity
  8
Sichtbare_Kanten_TC_020513_DIN_
  6
Continuous
 62
     7
100
AcDbLine
 10
112.577781560407
 20
232.086965018681
 30
0.0
 11
112.577781560407
 21
222.086965018681
 31
0.0
  0
LINE
  5
220
330
1F
100
AcDbEntity
  8
Sichtbare_Kanten_TC_020513_DIN_
  6
Continuous
 62
     7
100
AcDbLine
 10
109.077781560407
 20
218.586965018681
 30
0.0
 11
103.736009444609
 21
218.586965018681
 31
0.0
  0
LINE
  5
221
330
1F
100
AcDbEntity
  8
Sichtbare_Kanten_TC_020513_DIN_
  6
Continuous
 62
     7
100
AcDbLine
 10
103.736009444609
 20
223.586965018681
 30
0.0
 11
102.527781560407
 21
223.586965018677
 31
0.0
  0
LINE
  5
222
330
1F
100
AcDbEntity
  8
Sichtbare_Kanten_TC_020513_DIN_
  6
Continuous
 62
     7
100
AcDbLine
 10
103.736009444609
 20
218.586965018681
 30
0.0
 11
102.527781560407
 21
218.586965018676
 31
0.0
  0
LINE
  5
223
330
1F
100
AcDbEntity
  8
Sichtbare_Kanten_TC_020513_DIN_
  6
Continuous
 62
     7
100
AcDbLine
 10
103.736009444609
 20
223.586965018681
 30
0.0
 11
103.736009444609
 21
218.586965018681
 31
0.0
  0
LINE
  5
224
330
1F
100
AcDbEntity
  8
Sichtbare_Kanten_TC_020513_DIN_
  6
Continuous
 62
     7
100
AcDbLine
 10
100.527781560407
 20
240.086965018675
 30
0.0
 11
100.526781560407
 21
240.086965018676
 31
0.0
  0
LINE
  5
225
330
1F
100
AcDbEntity
  8
Sichtbare_Kanten_TC_020513_DIN_
  6
Continuous
 62
     7
100
AcDbLine
 10
100.526781560407
 20
240.086965018676
 30
0.0
 11
100.526781560407
 21
243.086965018676
 31
0.0
  0
LINE
  5
226
330
1F
100
AcDbEntity
  8
Sichtbare_Kanten_TC_020513_DIN_
  6
Continuous
 62
     7
100
AcDbLine
 10
100.526781560407
 20
243.086965018676
 30
0.0
 11
98.5277815604073
 21
243.086965018676
 31
0.0
  0
LINE
  5
227
330
1F
100
AcDbEntity
  8
Sichtbare_Kanten_TC_020513_DIN_
  6
Continuous
 62
     7
100
AcDbLine
 10
98.5277815604073
 20
228.086965018676
 30
0.0
 11
100.526781560407
 21
228.086965018676
 31
0.0
  0
LINE
  5
228
330
1F
100
AcDbEntity
  8
Sichtbare_Kanten_TC_020513_DIN_
  6
Continuous
 62
     7
100
AcDbLine
 10
100.526781560407
 20
228.086965018676
 30
0.0
 11
100.526781560407
 21
231.086965018676
 31
0.0
  0
LINE
  5
229
330
1F
100
AcDbEntity
  8
Sichtbare_Kanten_TC_020513_DIN_
  6
Continuous
 62
     7
100
AcDbLine
 10
100.526781560407
 20
231.086965018676
 30
0.0
 11
100.527781560407
 21
231.086965018675
 31
0.0
  0
LINE
  5
22A
330
1F
100
AcDbEntity
  8
Sichtbare_Kanten_TC_020513_DIN_
  6
Continuous
 62
     7
100
AcDbLine
 10
72.5277815604073
 20
225.086965018676
 30
0.0
 11
74.5277815604073
 21
225.086965018676
 31
0.0
  0
LINE
  5
22B
330
1F
100
AcDbEntity
  8
Sichtbare_Kanten_TC_020513_DIN_
  6
Continuous
 62
     7
100
AcDbLine
 10
74.5277815604073
 20
246.086965018676
 30
0.0
 11
72.5277815604073
 21
246.086965018676
 31
0.0
  0
LINE
  5
22C
330
1F
100
AcDbEntity
  8
Sichtbare_Kanten_TC_020513_DIN_
  6
Continuous
 62
     7
100
AcDbLine
 10
100.527781560407
 20
225.086965018676
 30
0.0
 11
102.527781560407
 21
225.086965018676
 31
0.0
  0
LINE
  5
22D
330
1F
100
AcDbEntity
  8
Sichtbare_Kanten_TC_020513_DIN_
  6
Continuous
 62
     7
100
AcDbLine
 10
76.5277815604073
 20
225.086965018676
 30
0.0
 11
78.5277815604073
 21
225.086965018675
 31
0.0
  0
LINE
  5
22E
330
1F
100
AcDbEntity
  8
Sichtbare_Kanten_TC_020513_DIN_
  6
Continuous
 62
     7
100
AcDbLine
 10
96.5277815604073
 20
225.086965018675
 30
0.0
 11
98.5277815604073
 21
225.086965018676
 31
0.0
  0
LINE
  5
22F
330
1F
100
AcDbEntity
  8
Sichtbare_Kanten_TC_020513_DIN_
  6
Continuous
 62
     7
100
AcDbLine
 10
98.5277815604073
 20
246.086965018676
 30
0.0
 11
96.5277815604073
 21
246.086965018675
 31
0.0
  0
LINE
  5
230
330
1F
100
AcDbEntity
  8
Sichtbare_Kanten_TC_020513_DIN_
  6
Continuous
 62
     7
100
AcDbLine
 10
102.527781560407
 20
246.086965018676
 30
0.0
 11
100.527781560407
 21
246.086965018676
 31
0.0
  0
LINE
  5
231
330
1F
100
AcDbEntity
  8
Sichtbare_Kanten_TC_020513_DIN_
  6
Continuous
 62
     7
100
AcDbLine
 10
78.5277815604073
 20
246.086965018675
 30
0.0
 11
76.5277815604073
 21
246.086965018676
 31
0.0
  0
LINE
  5
232
330
1F
100
AcDbEntity
  8
Sichtbare_Kanten_TC_020513_DIN_
  6
Continuous
 62
     7
100
AcDbLine
 10
102.527781560407
 20
231.086965018675
 30
0.0
 11
100.527781560407
 21
231.086965018675
 31
0.0
  0
LINE
  5
233
330
1F
100
AcDbEntity
  8
Sichtbare_Kanten_TC_020513_DIN_
  6
Continuous
 62
     7
100
AcDbLine
 10
100.527781560407
 20
240.086965018675
 30
0.0
 11
102.527781560407
 21
240.086965018675
 31
0.0
  0
LINE
  5
234
330
1F
100
AcDbEntity
  8
Sichtbare_Kanten_TC_020513_DIN_
  6
Continuous
 62
     7
100
AcDbLine
 10
69.5277815602515
 20
88.4339825342499
 30
0.0
 11
74.0277815602515
 21
88.4339825342499
 31
0.0
  0
LINE
  5
235
330
1F
100
AcDbEntity
  8
Sichtbare_Kanten_TC_020513_DIN_
  6
Continuous
 62
     7
100
AcDbLine
 10
74.0277815602515
 20
88.4339825342499
 30
0.0
 11
74.0277815602515
 21
83.4339825342499
 31
0.0
  0
LINE
  5
236
330
1F
100
AcDbEntity
  8
Sichtbare_Kanten_TC_020513_DIN_
  6
Continuous
 62
     7
100
AcDbLine
 10
101.027781560252
 20
83.4339825342499
 30
0.0
 11
101.027781560252
 21
88.4339825342499
 31
0.0
  0
LINE
  5
237
330
1F
100
AcDbEntity
  8
Sichtbare_Kanten_TC_020513_DIN_
  6
Continuous
 62
     7
100
AcDbLine
 10
101.027781560252
 20
88.4339825342499
 30
0.0
 11
105.527781560252
 21
88.4339825342499
 31
0.0
  0
LINE
  5
238
330
1F
100
AcDbEntity
  8
Sichtbare_Kanten_TC_020513_DIN_
  6
Continuous
 62
     7
100
AcDbLine
 10
101.335953413567
 20
83.4339825342459
 30
0.0
 11
101.027781560252
 21
83.4339825342499
 31
0.0
  0
LINE
  5
239
330
1F
100
AcDbEntity
  8
Sichtbare_Kanten_TC_020513_DIN_
  6
Continuous
 62
     7
100
AcDbLine
 10
74.0277815602515
 20
83.4339825342499
 30
0.0
 11
73.7196097069355
 21
83.4339825342459
 31
0.0
  0
LINE
  5
23A
330
1F
100
AcDbEntity
  8
Sichtbare_Kanten_TC_020513_DIN_
  6
Continuous
 62
     7
100
AcDbLine
 10
101.027781560252
 20
83.4339825342499
 30
0.0
 11
74.0277815602515
 21
83.4339825342499
 31
0.0
  0
LINE
  5
23B
330
1F
100
AcDbEntity
  8
Sichtbare_Kanten_TC_020513_DIN_
  6
Continuous
 62
     7
100
AcDbLine
 10
106.527781560252
 20
92.4339825342499
 30
0.0
 11
106.527781560252
 21
89.4339825342499
 31
0.0
  0
LINE
  5
23C
330
1F
100
AcDbEntity
  8
Sichtbare_Kanten_TC_020513_DIN_
  6
Continuous
 62
     7
100
AcDbLine
 10
111.527781560252
 20
93.4339825342499
 30
0.0
 11
107.527781560252
 21
93.4339825342499
 31
0.0
  0
LINE
  5
23D
330
1F
100
AcDbEntity
  8
Sichtbare_Kanten_TC_020513_DIN_
  6
Continuous
 62
     7
100
AcDbLine
 10
112.527781560252
 20
106.43398253425
 30
0.0
 11
112.527781560252
 21
94.4339825342499
 31
0.0
  0
LINE
  5
23E
330
1F
100
AcDbEntity
  8
Sichtbare_Kanten_TC_020513_DIN_
  6
Continuous
 62
     7
100
AcDbLine
 10
107.527781560252
 20
107.43398253425
 30
0.0
 11
111.527781560252
 21
107.43398253425
 31
0.0
  0
LINE
  5
23F
330
1F
100
AcDbEntity
  8
Sichtbare_Kanten_TC_020513_DIN_
  6
Continuous
 62
     7
100
AcDbLine
 10
106.527781560252
 20
111.43398253425
 30
0.0
 11
106.527781560252
 21
108.43398253425
 31
0.0
  0
LINE
  5
240
330
1F
100
AcDbEntity
  8
Sichtbare_Kanten_TC_020513_DIN_
  6
Continuous
 62
     7
100
AcDbLine
 10
74.0277815602515
 20
117.43398253425
 30
0.0
 11
101.027781560252
 21
117.43398253425
 31
0.0
  0
LINE
  5
241
330
1F
100
AcDbEntity
  8
Sichtbare_Kanten_TC_020513_DIN_
  6
Continuous
 62
     7
100
AcDbLine
 10
68.5277815602515
 20
108.43398253425
 30
0.0
 11
68.5277815602515
 21
111.43398253425
 31
0.0
  0
LINE
  5
242
330
1F
100
AcDbEntity
  8
Sichtbare_Kanten_TC_020513_DIN_
  6
Continuous
 62
     7
100
AcDbLine
 10
63.5277815602515
 20
107.43398253425
 30
0.0
 11
67.5277815602515
 21
107.43398253425
 31
0.0
  0
LINE
  5
243
330
1F
100
AcDbEntity
  8
Sichtbare_Kanten_TC_020513_DIN_
  6
Continuous
 62
     7
100
AcDbLine
 10
62.5277815602515
 20
94.4339825342499
 30
0.0
 11
62.5277815602515
 21
106.43398253425
 31
0.0
  0
LINE
  5
244
330
1F
100
AcDbEntity
  8
Sichtbare_Kanten_TC_020513_DIN_
  6
Continuous
 62
     7
100
AcDbLine
 10
67.5277815602515
 20
93.4339825342499
 30
0.0
 11
63.5277815602515
 21
93.4339825342499
 31
0.0
  0
LINE
  5
245
330
1F
100
AcDbEntity
  8
Sichtbare_Kanten_TC_020513_DIN_
  6
Continuous
 62
     7
100
AcDbLine
 10
68.5277815602515
 20
89.4339825342499
 30
0.0
 11
68.5277815602515
 21
92.4339825342499
 31
0.0
  0
LINE
  5
246
330
1F
100
AcDbEntity
  8
Sichtbare_Kanten_TC_020513_DIN_
  6
Continuous
 62
     7
100
AcDbLine
 10
105.527781560252
 20
112.43398253425
 30
0.0
 11
101.027781560252
 21
112.43398253425
 31
0.0
  0
LINE
  5
247
330
1F
100
AcDbEntity
  8
Sichtbare_Kanten_TC_020513_DIN_
  6
Continuous
 62
     7
100
AcDbLine
 10
101.027781560252
 20
112.43398253425
 30
0.0
 11
101.027781560252
 21
117.43398253425
 31
0.0
  0
LINE
  5
248
330
1F
100
AcDbEntity
  8
Sichtbare_Kanten_TC_020513_DIN_
  6
Continuous
 62
     7
100
AcDbLine
 10
74.0277815602515
 20
117.43398253425
 30
0.0
 11
74.0277815602515
 21
112.43398253425
 31
0.0
  0
LINE
  5
249
330
1F
100
AcDbEntity
  8
Sichtbare_Kanten_TC_020513_DIN_
  6
Continuous
 62
     7
100
AcDbLine
 10
74.0277815602515
 20
112.43398253425
 30
0.0
 11
69.5277815602515
 21
112.43398253425
 31
0.0
  0
LINE
  5
24A
330
1F
100
AcDbEntity
  8
Sichtbare_Kanten_TC_020513_DIN_
  6
Continuous
 62
     7
100
AcDbLine
 10
101.027781560252
 20
117.43398253425
 30
0.0
 11
101.335953413567
 21
117.433982534246
 31
0.0
  0
LINE
  5
24B
330
1F
100
AcDbEntity
  8
Sichtbare_Kanten_TC_020513_DIN_
  6
Continuous
 62
     7
100
AcDbLine
 10
73.7196097069355
 20
117.433982534246
 30
0.0
 11
74.0277815602515
 21
117.43398253425
 31
0.0
  0
LINE
  5
24C
330
1F
100
AcDbEntity
  8
Sichtbare_Kanten_TC_020513_DIN_
  6
Continuous
 62
     7
100
AcDbLine
 10
97.6794583852075
 20
89.6352020603849
 30
0.0
 11
97.6794583852075
 21
89.321939860595
 31
0.0
  0
LINE
  5
24D
330
1F
100
AcDbEntity
  8
Sichtbare_Kanten_TC_020513_DIN_
  6
Continuous
 62
     7
100
AcDbLine
 10
97.6794583852075
 20
89.321939860595
 30
0.0
 11
97.2282388662887
 21
89.6352020603849
 31
0.0
  0
LINE
  5
24E
330
1F
100
AcDbEntity
  8
Sichtbare_Kanten_TC_020513_DIN_
  6
Continuous
 62
     7
100
AcDbLine
 10
97.2282388662887
 20
89.6352020603849
 30
0.0
 11
97.6794583852075
 21
89.6352020603849
 31
0.0
  0
LINE
  5
24F
330
1F
100
AcDbEntity
  8
Sichtbare_Kanten_TC_020513_DIN_
  6
Continuous
 62
     7
100
AcDbLine
 10
97.7922632649372
 20
89.6352020603849
 30
0.0
 11
97.7922632649372
 21
89.2015130295322
 31
0.0
  0
LINE
  5
250
330
1F
100
AcDbEntity
  8
Sichtbare_Kanten_TC_020513_DIN_
  6
Continuous
 62
     7
100
AcDbLine
 10
97.7922632649372
 20
89.2015130295322
 30
0.0
 11
97.6794583852075
 21
89.2015130295322
 31
0.0
  0
LINE
  5
251
330
1F
100
AcDbEntity
  8
Sichtbare_Kanten_TC_020513_DIN_
  6
Continuous
 62
     7
100
AcDbLine
 10
97.6794583852075
 20
89.2015130295322
 30
0.0
 11
97.031592521895
 21
89.6573057192509
 31
0.0
  0
LINE
  5
252
330
1F
100
AcDbEntity
  8
Sichtbare_Kanten_TC_020513_DIN_
  6
Continuous
 62
     7
100
AcDbLine
 10
97.031592521895
 20
89.6573057192509
 30
0.0
 11
97.031592521895
 21
89.7579154768476
 31
0.0
  0
LINE
  5
253
330
1F
100
AcDbEntity
  8
Sichtbare_Kanten_TC_020513_DIN_
  6
Continuous
 62
     7
100
AcDbLine
 10
97.031592521895
 20
89.7579154768476
 30
0.0
 11
97.6794583852075
 21
89.7579154768476
 31
0.0
  0
LINE
  5
254
330
1F
100
AcDbEntity
  8
Sichtbare_Kanten_TC_020513_DIN_
  6
Continuous
 62
     7
100
AcDbLine
 10
97.6794583852075
 20
89.7579154768476
 30
0.0
 11
97.6794583852075
 21
89.8928240154433
 31
0.0
  0
LINE
  5
255
330
1F
100
AcDbEntity
  8
Sichtbare_Kanten_TC_020513_DIN_
  6
Continuous
 62
     7
100
AcDbLine
 10
97.6794583852075
 20
89.8928240154433
 30
0.0
 11
97.7922632649372
 21
89.8928240154433
 31
0.0
  0
LINE
  5
256
330
1F
100
AcDbEntity
  8
Sichtbare_Kanten_TC_020513_DIN_
  6
Continuous
 62
     7
100
AcDbLine
 10
97.7922632649372
 20
89.8928240154433
 30
0.0
 11
97.7922632649372
 21
89.7579154768476
 31
0.0
  0
LINE
  5
257
330
1F
100
AcDbEntity
  8
Sichtbare_Kanten_TC_020513_DIN_
  6
Continuous
 62
     7
100
AcDbLine
 10
97.7922632649372
 20
89.7579154768476
 30
0.0
 11
98.0315925367962
 21
89.7579154768476
 31
0.0
  0
LINE
  5
258
330
1F
100
AcDbEntity
  8
Sichtbare_Kanten_TC_020513_DIN_
  6
Continuous
 62
     7
100
AcDbLine
 10
98.0315925367962
 20
89.7579154768476
 30
0.0
 11
98.0315925367962
 21
89.6352020603849
 31
0.0
  0
LINE
  5
259
330
1F
100
AcDbEntity
  8
Sichtbare_Kanten_TC_020513_DIN_
  6
Continuous
 62
     7
100
AcDbLine
 10
98.0315925367962
 20
89.6352020603849
 30
0.0
 11
97.7922632649372
 21
89.6352020603849
 31
0.0
  0
LINE
  5
25A
330
1F
100
AcDbEntity
  8
Sichtbare_Kanten_TC_020513_DIN_
  6
Continuous
 62
     7
100
AcDbLine
 10
78.0315925367961
 20
89.58108620592
 30
0.0
 11
77.2495803300213
 21
89.58108620592
 31
0.0
  0
LINE
  5
25B
330
1F
100
AcDbEntity
  8
Sichtbare_Kanten_TC_020513_DIN_
  6
Continuous
 62
     7
100
AcDbLine
 10
77.3974461858832
 20
89.3356593729946
 30
0.0
 11
77.278543745087
 21
89.3356593729946
 31
0.0
  0
LINE
  5
25C
330
1F
100
AcDbEntity
  8
Sichtbare_Kanten_TC_020513_DIN_
  6
Continuous
 62
     7
100
AcDbLine
 10
77.0277815462284
 20
89.6245313285186
 30
0.0
 11
77.0277815462284
 21
89.7037996223827
 31
0.0
  0
LINE
  5
25D
330
1F
100
AcDbEntity
  8
Sichtbare_Kanten_TC_020513_DIN_
  6
Continuous
 62
     7
100
AcDbLine
 10
77.0277815462284
 20
89.7037996223827
 30
0.0
 11
78.0315925367961
 21
89.7037996223827
 31
0.0
  0
LINE
  5
25E
330
1F
100
AcDbEntity
  8
Sichtbare_Kanten_TC_020513_DIN_
  6
Continuous
 62
     7
100
AcDbLine
 10
78.0315925367961
 20
89.7037996223827
 30
0.0
 11
78.0315925367961
 21
89.58108620592
 31
0.0
  0
LINE
  5
25F
330
1F
100
AcDbEntity
  8
Sichtbare_Kanten_TC_020513_DIN_
  6
Continuous
 62
     7
100
AcDbLine
 10
78.0315925367961
 20
111.692747781893
 30
0.0
 11
77.2495803300213
 21
111.692747781893
 31
0.0
  0
LINE
  5
260
330
1F
100
AcDbEntity
  8
Sichtbare_Kanten_TC_020513_DIN_
  6
Continuous
 62
     7
100
AcDbLine
 10
77.3974461858832
 20
111.447320948968
 30
0.0
 11
77.278543745087
 21
111.447320948968
 31
0.0
  0
LINE
  5
261
330
1F
100
AcDbEntity
  8
Sichtbare_Kanten_TC_020513_DIN_
  6
Continuous
 62
     7
100
AcDbLine
 10
77.0277815462284
 20
111.736192904492
 30
0.0
 11
77.0277815462284
 21
111.815461198356
 31
0.0
  0
LINE
  5
262
330
1F
100
AcDbEntity
  8
Sichtbare_Kanten_TC_020513_DIN_
  6
Continuous
 62
     7
100
AcDbLine
 10
77.0277815462284
 20
111.815461198356
 30
0.0
 11
78.0315925367961
 21
111.815461198356
 31
0.0
  0
LINE
  5
263
330
1F
100
AcDbEntity
  8
Sichtbare_Kanten_TC_020513_DIN_
  6
Continuous
 62
     7
100
AcDbLine
 10
78.0315925367961
 20
111.815461198356
 30
0.0
 11
78.0315925367961
 21
111.692747781893
 31
0.0
  0
LINE
  5
264
330
1F
100
AcDbEntity
  8
Sichtbare_Kanten_TC_020513_DIN_
  6
Continuous
 62
     7
100
AcDbLine
 10
78.0315925367961
 20
89.1100496135352
 30
0.0
 11
78.0315925367961
 21
88.4492264329564
 31
0.0
  0
LINE
  5
265
330
1F
100
AcDbEntity
  8
Sichtbare_Kanten_TC_020513_DIN_
  6
Continuous
 62
     7
100
AcDbLine
 10
77.3296108190187
 20
88.5986166790849
 30
0.0
 11
77.3166535017525
 21
88.4720922869557
 31
0.0
  0
LINE
  5
266
330
1F
100
AcDbEntity
  8
Sichtbare_Kanten_TC_020513_DIN_
  6
Continuous
 62
     7
100
AcDbLine
 10
77.9134522911333
 20
88.6199581428176
 30
0.0
 11
77.9134522911333
 21
89.1100496135352
 31
0.0
  0
LINE
  5
267
330
1F
100
AcDbEntity
  8
Sichtbare_Kanten_TC_020513_DIN_
  6
Continuous
 62
     7
100
AcDbLine
 10
77.9134522911333
 20
89.1100496135352
 30
0.0
 11
78.0315925367961
 21
89.1100496135352
 31
0.0
  0
LINE
  5
268
330
1F
100
AcDbEntity
  8
Sichtbare_Kanten_TC_020513_DIN_
  6
Continuous
 62
     7
100
AcDbLine
 10
98.0315925367962
 20
89.1100496135352
 30
0.0
 11
98.0315925367962
 21
88.4492264329564
 31
0.0
  0
LINE
  5
269
330
1F
100
AcDbEntity
  8
Sichtbare_Kanten_TC_020513_DIN_
  6
Continuous
 62
     7
100
AcDbLine
 10
97.3296108190188
 20
88.598616679085
 30
0.0
 11
97.3166535017525
 21
88.4720922869557
 31
0.0
  0
LINE
  5
26A
330
1F
100
AcDbEntity
  8
Sichtbare_Kanten_TC_020513_DIN_
  6
Continuous
 62
     7
100
AcDbLine
 10
97.9134522911333
 20
88.6199581428176
 30
0.0
 11
97.9134522911333
 21
89.1100496135352
 31
0.0
  0
LINE
  5
26B
330
1F
100
AcDbEntity
  8
Sichtbare_Kanten_TC_020513_DIN_
  6
Continuous
 62
     7
100
AcDbLine
 10
97.9134522911333
 20
89.1100496135352
 30
0.0
 11
98.0315925367962
 21
89.1100496135352
 31
0.0
  0
LINE
  5
26C
330
1F
100
AcDbEntity
  8
Sichtbare_Kanten_TC_020513_DIN_
  6
Continuous
 62
     7
100
AcDbLine
 10
97.6756474095942
 20
111.746863636358
 30
0.0
 11
97.6756474095942
 21
111.433601436568
 31
0.0
  0
LINE
  5
26D
330
1F
100
AcDbEntity
  8
Sichtbare_Kanten_TC_020513_DIN_
  6
Continuous
 62
     7
100
AcDbLine
 10
97.6756474095942
 20
111.433601436568
 30
0.0
 11
97.2244278906753
 21
111.746863636358
 31
0.0
  0
LINE
  5
26E
330
1F
100
AcDbEntity
  8
Sichtbare_Kanten_TC_020513_DIN_
  6
Continuous
 62
     7
100
AcDbLine
 10
97.2244278906753
 20
111.746863636358
 30
0.0
 11
97.6756474095942
 21
111.746863636358
 31
0.0
  0
LINE
  5
26F
330
1F
100
AcDbEntity
  8
Sichtbare_Kanten_TC_020513_DIN_
  6
Continuous
 62
     7
100
AcDbLine
 10
97.7884522893239
 20
111.746863636358
 30
0.0
 11
97.7884522893239
 21
111.313174605505
 31
0.0
  0
LINE
  5
270
330
1F
100
AcDbEntity
  8
Sichtbare_Kanten_TC_020513_DIN_
  6
Continuous
 62
     7
100
AcDbLine
 10
97.7884522893239
 20
111.313174605505
 30
0.0
 11
97.6756474095942
 21
111.313174605505
 31
0.0
  0
LINE
  5
271
330
1F
100
AcDbEntity
  8
Sichtbare_Kanten_TC_020513_DIN_
  6
Continuous
 62
     7
100
AcDbLine
 10
97.6756474095942
 20
111.313174605505
 30
0.0
 11
97.0277815462817
 21
111.768967295224
 31
0.0
  0
LINE
  5
272
330
1F
100
AcDbEntity
  8
Sichtbare_Kanten_TC_020513_DIN_
  6
Continuous
 62
     7
100
AcDbLine
 10
97.0277815462817
 20
111.768967295224
 30
0.0
 11
97.0277815462817
 21
111.869577052821
 31
0.0
  0
LINE
  5
273
330
1F
100
AcDbEntity
  8
Sichtbare_Kanten_TC_020513_DIN_
  6
Continuous
 62
     7
100
AcDbLine
 10
97.0277815462817
 20
111.869577052821
 30
0.0
 11
97.6756474095942
 21
111.869577052821
 31
0.0
  0
LINE
  5
274
330
1F
100
AcDbEntity
  8
Sichtbare_Kanten_TC_020513_DIN_
  6
Continuous
 62
     7
100
AcDbLine
 10
97.6756474095942
 20
111.869577052821
 30
0.0
 11
97.6756474095942
 21
112.004485591416
 31
0.0
  0
LINE
  5
275
330
1F
100
AcDbEntity
  8
Sichtbare_Kanten_TC_020513_DIN_
  6
Continuous
 62
     7
100
AcDbLine
 10
97.6756474095942
 20
112.004485591416
 30
0.0
 11
97.7884522893239
 21
112.004485591416
 31
0.0
  0
LINE
  5
276
330
1F
100
AcDbEntity
  8
Sichtbare_Kanten_TC_020513_DIN_
  6
Continuous
 62
     7
100
AcDbLine
 10
97.7884522893239
 20
112.004485591416
 30
0.0
 11
97.7884522893239
 21
111.869577052821
 31
0.0
  0
LINE
  5
277
330
1F
100
AcDbEntity
  8
Sichtbare_Kanten_TC_020513_DIN_
  6
Continuous
 62
     7
100
AcDbLine
 10
97.7884522893239
 20
111.869577052821
 30
0.0
 11
98.0277815611828
 21
111.869577052821
 31
0.0
  0
LINE
  5
278
330
1F
100
AcDbEntity
  8
Sichtbare_Kanten_TC_020513_DIN_
  6
Continuous
 62
     7
100
AcDbLine
 10
98.0277815611828
 20
111.869577052821
 30
0.0
 11
98.0277815611828
 21
111.746863636358
 31
0.0
  0
LINE
  5
279
330
1F
100
AcDbEntity
  8
Sichtbare_Kanten_TC_020513_DIN_
  6
Continuous
 62
     7
100
AcDbLine
 10
98.0277815611828
 20
111.746863636358
 30
0.0
 11
97.7884522893239
 21
111.746863636358
 31
0.0
  0
LINE
  5
27A
330
1F
100
AcDbEntity
  8
Sichtbare_Kanten_TC_020513_DIN_
  6
Continuous
 62
     7
100
AcDbLine
 10
92.0277815602515
 20
87.433982534254
 30
0.0
 11
83.0277815602515
 21
87.433982534254
 31
0.0
  0
LINE
  5
27B
330
1F
100
AcDbEntity
  8
Sichtbare_Kanten_TC_020513_DIN_
  6
Continuous
 62
     7
100
AcDbLine
 10
92.0277815602515
 20
87.433982534254
 30
0.0
 11
92.0277815602515
 21
86.433982534254
 31
0.0
  0
LINE
  5
27C
330
1F
100
AcDbEntity
  8
Sichtbare_Kanten_TC_020513_DIN_
  6
Continuous
 62
     7
100
AcDbLine
 10
83.0277815602515
 20
86.433982534254
 30
0.0
 11
83.0277815602515
 21
87.433982534254
 31
0.0
  0
LINE
  5
27D
330
1F
100
AcDbEntity
  8
Sichtbare_Kanten_TC_020513_DIN_
  6
Continuous
 62
     7
100
AcDbLine
 10
96.0277815602515
 20
86.433982534254
 30
0.0
 11
92.0277815602515
 21
86.433982534254
 31
0.0
  0
LINE
  5
27E
330
1F
100
AcDbEntity
  8
Sichtbare_Kanten_TC_020513_DIN_
  6
Continuous
 62
     7
100
AcDbLine
 10
98.5277815602515
 20
111.933982534254
 30
0.0
 11
98.5277815602515
 21
88.933982534254
 31
0.0
  0
LINE
  5
27F
330
1F
100
AcDbEntity
  8
Sichtbare_Kanten_TC_020513_DIN_
  6
Continuous
 62
     7
100
AcDbLine
 10
92.5277815602515
 20
114.433982534254
 30
0.0
 11
96.0277815602515
 21
114.433982534254
 31
0.0
  0
LINE
  5
280
330
1F
100
AcDbEntity
  8
Sichtbare_Kanten_TC_020513_DIN_
  6
Continuous
 62
     7
100
AcDbLine
 10
79.0277815602515
 20
114.433982534254
 30
0.0
 11
82.5277815602515
 21
114.433982534254
 31
0.0
  0
LINE
  5
281
330
1F
100
AcDbEntity
  8
Sichtbare_Kanten_TC_020513_DIN_
  6
Continuous
 62
     7
100
AcDbLine
 10
76.5277815602515
 20
88.933982534254
 30
0.0
 11
76.5277815602515
 21
111.933982534254
 31
0.0
  0
LINE
  5
282
330
1F
100
AcDbEntity
  8
Sichtbare_Kanten_TC_020513_DIN_
  6
Continuous
 62
     7
100
AcDbLine
 10
83.0277815602515
 20
86.433982534254
 30
0.0
 11
79.0277815602515
 21
86.433982534254
 31
0.0
  0
LINE
  5
283
330
1F
100
AcDbEntity
  8
Sichtbare_Kanten_TC_020513_DIN_
  6
Continuous
 62
     7
100
AcDbLine
 10
92.5277815602515
 20
114.433982534254
 30
0.0
 11
92.5277815602515
 21
115.433982534254
 31
0.0
  0
LINE
  5
284
330
1F
100
AcDbEntity
  8
Sichtbare_Kanten_TC_020513_DIN_
  6
Continuous
 62
     7
100
AcDbLine
 10
92.5277815602515
 20
115.433982534254
 30
0.0
 11
82.5277815602515
 21
115.433982534254
 31
0.0
  0
LINE
  5
285
330
1F
100
AcDbEntity
  8
Sichtbare_Kanten_TC_020513_DIN_
  6
Continuous
 62
     7
100
AcDbLine
 10
82.5277815602515
 20
115.433982534254
 30
0.0
 11
82.5277815602515
 21
114.433982534254
 31
0.0
  0
LINE
  5
286
330
1F
100
AcDbEntity
  8
Sichtbare_Kanten_TC_020513_DIN_
  6
Continuous
 62
     7
100
AcDbLine
 10
65.1277815602515
 20
111.415550482358
 30
0.0
 11
65.1277815602515
 21
113.53398253425
 31
0.0
  0
LINE
  5
287
330
1F
100
AcDbEntity
  8
Sichtbare_Kanten_TC_020513_DIN_
  6
Continuous
 62
     7
100
AcDbLine
 10
65.1277814648841
 20
111.213228626093
 30
0.0
 11
65.1277814648841
 21
111.415550632318
 31
0.0
  0
LINE
  5
288
330
1F
100
AcDbEntity
  8
Sichtbare_Kanten_TC_020513_DIN_
  6
Continuous
 62
     7
100
AcDbLine
 10
65.9277815602515
 20
116.452414586143
 30
0.0
 11
65.9277815602515
 21
114.33398253425
 31
0.0
  0
LINE
  5
289
330
1F
100
AcDbEntity
  8
Sichtbare_Kanten_TC_020513_DIN_
  6
Continuous
 62
     7
100
AcDbLine
 10
65.9277807019446
 20
116.654735727152
 30
0.0
 11
65.9277807019446
 21
116.452414913019
 31
0.0
  0
LINE
  5
28A
330
1F
100
AcDbEntity
  8
Sichtbare_Kanten_TC_020513_DIN_
  6
Continuous
 62
     7
100
AcDbLine
 10
67.2777815602515
 20
113.53398253425
 30
0.0
 11
65.9277815602515
 21
113.53398253425
 31
0.0
  0
LINE
  5
28B
330
1F
100
AcDbEntity
  8
Sichtbare_Kanten_TC_020513_DIN_
  6
Continuous
 62
     7
100
AcDbLine
 10
67.2777815602515
 20
114.33398253425
 30
0.0
 11
67.2777815602515
 21
113.53398253425
 31
0.0
  0
LINE
  5
28C
330
1F
100
AcDbEntity
  8
Sichtbare_Kanten_TC_020513_DIN_
  6
Continuous
 62
     7
100
AcDbLine
 10
65.9277815602515
 20
114.33398253425
 30
0.0
 11
67.2777815602515
 21
114.33398253425
 31
0.0
  0
LINE
  5
28D
330
1F
100
AcDbEntity
  8
Sichtbare_Kanten_TC_020513_DIN_
  6
Continuous
 62
     7
100
AcDbLine
 10
65.1277814648841
 20
116.452414913019
 30
0.0
 11
65.1277814648841
 21
116.654735727152
 31
0.0
  0
LINE
  5
28E
330
1F
100
AcDbEntity
  8
Sichtbare_Kanten_TC_020513_DIN_
  6
Continuous
 62
     7
100
AcDbLine
 10
65.1277815602515
 20
114.33398253425
 30
0.0
 11
65.1277815602515
 21
116.452414586143
 31
0.0
  0
LINE
  5
28F
330
1F
100
AcDbEntity
  8
Sichtbare_Kanten_TC_020513_DIN_
  6
Continuous
 62
     7
100
AcDbLine
 10
63.7777815602515
 20
114.33398253425
 30
0.0
 11
65.1277815602515
 21
114.33398253425
 31
0.0
  0
LINE
  5
290
330
1F
100
AcDbEntity
  8
Sichtbare_Kanten_TC_020513_DIN_
  6
Continuous
 62
     7
100
AcDbLine
 10
63.7777815602515
 20
113.53398253425
 30
0.0
 11
63.7777815602515
 21
114.33398253425
 31
0.0
  0
LINE
  5
291
330
1F
100
AcDbEntity
  8
Sichtbare_Kanten_TC_020513_DIN_
  6
Continuous
 62
     7
100
AcDbLine
 10
65.1277815602515
 20
113.53398253425
 30
0.0
 11
63.7777815602515
 21
113.53398253425
 31
0.0
  0
LINE
  5
292
330
1F
100
AcDbEntity
  8
Sichtbare_Kanten_TC_020513_DIN_
  6
Continuous
 62
     7
100
AcDbLine
 10
65.9277807019446
 20
111.415550632318
 30
0.0
 11
65.9277807019446
 21
111.213228626093
 31
0.0
  0
LINE
  5
293
330
1F
100
AcDbEntity
  8
Sichtbare_Kanten_TC_020513_DIN_
  6
Continuous
 62
     7
100
AcDbLine
 10
65.9277815602515
 20
113.53398253425
 30
0.0
 11
65.9277815602515
 21
111.415550482358
 31
0.0
  0
LINE
  5
294
330
1F
100
AcDbEntity
  8
Sichtbare_Kanten_TC_020513_DIN_
  6
Continuous
 62
     7
100
AcDbLine
 10
65.9277815602515
 20
89.4524145861428
 30
0.0
 11
65.9277815602515
 21
87.3339825342502
 31
0.0
  0
LINE
  5
295
330
1F
100
AcDbEntity
  8
Sichtbare_Kanten_TC_020513_DIN_
  6
Continuous
 62
     7
100
AcDbLine
 10
65.9277807019446
 20
89.6547364424075
 30
0.0
 11
65.9277807019446
 21
89.4524144361819
 31
0.0
  0
LINE
  5
296
330
1F
100
AcDbEntity
  8
Sichtbare_Kanten_TC_020513_DIN_
  6
Continuous
 62
     7
100
AcDbLine
 10
65.1277815602515
 20
84.4155504823575
 30
0.0
 11
65.1277815602515
 21
86.5339825342502
 31
0.0
  0
LINE
  5
297
330
1F
100
AcDbEntity
  8
Sichtbare_Kanten_TC_020513_DIN_
  6
Continuous
 62
     7
100
AcDbLine
 10
65.1277814648841
 20
84.2132293413485
 30
0.0
 11
65.1277814648841
 21
84.4155501554812
 31
0.0
  0
LINE
  5
298
330
1F
100
AcDbEntity
  8
Sichtbare_Kanten_TC_020513_DIN_
  6
Continuous
 62
     7
100
AcDbLine
 10
65.9277815602515
 20
87.3339825342502
 30
0.0
 11
67.2777815602515
 21
87.3339825342502
 31
0.0
  0
LINE
  5
299
330
1F
100
AcDbEntity
  8
Sichtbare_Kanten_TC_020513_DIN_
  6
Continuous
 62
     7
100
AcDbLine
 10
67.2777815602515
 20
87.3339825342502
 30
0.0
 11
67.2777815602515
 21
86.5339825342502
 31
0.0
  0
LINE
  5
29A
330
1F
100
AcDbEntity
  8
Sichtbare_Kanten_TC_020513_DIN_
  6
Continuous
 62
     7
100
AcDbLine
 10
67.2777815602515
 20
86.5339825342502
 30
0.0
 11
65.9277815602515
 21
86.5339825342502
 31
0.0
  0
LINE
  5
29B
330
1F
100
AcDbEntity
  8
Sichtbare_Kanten_TC_020513_DIN_
  6
Continuous
 62
     7
100
AcDbLine
 10
65.9277807019446
 20
84.4155501554812
 30
0.0
 11
65.9277807019446
 21
84.2132293413485
 31
0.0
  0
LINE
  5
29C
330
1F
100
AcDbEntity
  8
Sichtbare_Kanten_TC_020513_DIN_
  6
Continuous
 62
     7
100
AcDbLine
 10
65.9277815602515
 20
86.5339825342502
 30
0.0
 11
65.9277815602515
 21
84.4155504823575
 31
0.0
  0
LINE
  5
29D
330
1F
100
AcDbEntity
  8
Sichtbare_Kanten_TC_020513_DIN_
  6
Continuous
 62
     7
100
AcDbLine
 10
65.1277815602515
 20
86.5339825342502
 30
0.0
 11
63.7777815602515
 21
86.5339825342502
 31
0.0
  0
LINE
  5
29E
330
1F
100
AcDbEntity
  8
Sichtbare_Kanten_TC_020513_DIN_
  6
Continuous
 62
     7
100
AcDbLine
 10
63.7777815602515
 20
86.5339825342502
 30
0.0
 11
63.7777815602515
 21
87.3339825342502
 31
0.0
  0
LINE
  5
29F
330
1F
100
AcDbEntity
  8
Sichtbare_Kanten_TC_020513_DIN_
  6
Continuous
 62
     7
100
AcDbLine
 10
63.7777815602515
 20
87.3339825342502
 30
0.0
 11
65.1277815602515
 21
87.3339825342502
 31
0.0
  0
LINE
  5
2A0
330
1F
100
AcDbEntity
  8
Sichtbare_Kanten_TC_020513_DIN_
  6
Continuous
 62
     7
100
AcDbLine
 10
65.1277814648841
 20
89.4524144361819
 30
0.0
 11
65.1277814648841
 21
89.6547364424075
 31
0.0
  0
LINE
  5
2A1
330
1F
100
AcDbEntity
  8
Sichtbare_Kanten_TC_020513_DIN_
  6
Continuous
 62
     7
100
AcDbLine
 10
65.1277815602515
 20
87.3339825342502
 30
0.0
 11
65.1277815602515
 21
89.4524145861428
 31
0.0
  0
LINE
  5
2A2
330
1F
100
AcDbEntity
  8
Sichtbare_Kanten_TC_020513_DIN_
  6
Continuous
 62
     7
100
AcDbLine
 10
73.7196097069355
 20
83.4339825342459
 30
0.0
 11
73.7196097069355
 21
88.4339825342459
 31
0.0
  0
LINE
  5
2A3
330
1F
100
AcDbEntity
  8
Sichtbare_Kanten_TC_020513_DIN_
  6
Continuous
 62
     7
100
AcDbLine
 10
73.7196097069355
 20
83.4339825342459
 30
0.0
 11
72.5277815602515
 21
83.4339825342489
 31
0.0
  0
LINE
  5
2A4
330
1F
100
AcDbEntity
  8
Sichtbare_Kanten_TC_020513_DIN_
  6
Continuous
 62
     7
100
AcDbLine
 10
73.7196097069355
 20
117.433982534246
 30
0.0
 11
73.7196097069355
 21
112.433982534246
 31
0.0
  0
LINE
  5
2A5
330
1F
100
AcDbEntity
  8
Sichtbare_Kanten_TC_020513_DIN_
  6
Continuous
 62
     7
100
AcDbLine
 10
73.7196097069355
 20
117.433982534246
 30
0.0
 11
72.5277815602515
 21
117.433982534249
 31
0.0
  0
LINE
  5
2A6
330
1F
100
AcDbEntity
  8
Sichtbare_Kanten_TC_020513_DIN_
  6
Continuous
 62
     7
100
AcDbLine
 10
71.5277815602515
 20
101.933982534254
 30
0.0
 11
72.0277815602515
 21
101.933982534254
 31
0.0
  0
LINE
  5
2A7
330
1F
100
AcDbEntity
  8
Sichtbare_Kanten_TC_020513_DIN_
  6
Continuous
 62
     7
100
AcDbLine
 10
71.5277815602515
 20
101.933982534254
 30
0.0
 11
71.5277815602515
 21
98.9339825342536
 31
0.0
  0
LINE
  5
2A8
330
1F
100
AcDbEntity
  8
Sichtbare_Kanten_TC_020513_DIN_
  6
Continuous
 62
     7
100
AcDbLine
 10
72.0277815602515
 20
98.9339825342537
 30
0.0
 11
71.5277815602515
 21
98.9339825342536
 31
0.0
  0
LINE
  5
2A9
330
1F
100
AcDbEntity
  8
Sichtbare_Kanten_TC_020513_DIN_
  6
Continuous
 62
     7
100
AcDbLine
 10
72.0277815602515
 20
101.933982534254
 30
0.0
 11
76.0267815602515
 21
103.433482534254
 31
0.0
  0
LINE
  5
2AA
330
1F
100
AcDbEntity
  8
Sichtbare_Kanten_TC_020513_DIN_
  6
Continuous
 62
     7
100
AcDbLine
 10
76.0267815602515
 20
103.433482534254
 30
0.0
 11
76.0267815602515
 21
97.4344825342538
 31
0.0
  0
LINE
  5
2AB
330
1F
100
AcDbEntity
  8
Sichtbare_Kanten_TC_020513_DIN_
  6
Continuous
 62
     7
100
AcDbLine
 10
76.0267815602515
 20
97.4344825342538
 30
0.0
 11
72.0277815602515
 21
98.9339825342537
 31
0.0
  0
LINE
  5
2AC
330
1F
100
AcDbEntity
  8
Sichtbare_Kanten_TC_020513_DIN_
  6
Continuous
 62
     7
100
AcDbLine
 10
72.5277815602515
 20
83.4339825342489
 30
0.0
 11
72.5277815602515
 21
88.4339825342493
 31
0.0
  0
LINE
  5
2AD
330
1F
100
AcDbEntity
  8
Sichtbare_Kanten_TC_020513_DIN_
  6
Continuous
 62
     7
100
AcDbLine
 10
65.9777815602515
 20
83.4339825342493
 30
0.0
 11
72.5277815602515
 21
83.4339825342489
 31
0.0
  0
LINE
  5
2AE
330
1F
100
AcDbEntity
  8
Sichtbare_Kanten_TC_020513_DIN_
  6
Continuous
 62
     7
100
AcDbLine
 10
62.4777815602515
 20
96.9339825342493
 30
0.0
 11
62.4777815602515
 21
86.9339825342493
 31
0.0
  0
LINE
  5
2AF
330
1F
100
AcDbEntity
  8
Sichtbare_Kanten_TC_020513_DIN_
  6
Continuous
 62
     7
100
AcDbLine
 10
62.5277815602515
 20
96.9339825342493
 30
0.0
 11
62.4777815602515
 21
96.9339825342493
 31
0.0
  0
LINE
  5
2B0
330
1F
100
AcDbEntity
  8
Sichtbare_Kanten_TC_020513_DIN_
  6
Continuous
 62
     7
100
AcDbLine
 10
72.5277815602515
 20
112.433982534249
 30
0.0
 11
72.5277815602515
 21
117.433982534249
 31
0.0
  0
LINE
  5
2B1
330
1F
100
AcDbEntity
  8
Sichtbare_Kanten_TC_020513_DIN_
  6
Continuous
 62
     7
100
AcDbLine
 10
72.5277815602515
 20
117.433982534249
 30
0.0
 11
65.9777815602515
 21
117.433982534249
 31
0.0
  0
LINE
  5
2B2
330
1F
100
AcDbEntity
  8
Sichtbare_Kanten_TC_020513_DIN_
  6
Continuous
 62
     7
100
AcDbLine
 10
62.4777815602515
 20
113.933982534249
 30
0.0
 11
62.4777815602515
 21
103.933982534249
 31
0.0
  0
LINE
  5
2B3
330
1F
100
AcDbEntity
  8
Sichtbare_Kanten_TC_020513_DIN_
  6
Continuous
 62
     7
100
AcDbLine
 10
62.4777815602515
 20
103.933982534249
 30
0.0
 11
62.5277815602515
 21
103.933982534249
 31
0.0
  0
LINE
  5
2B4
330
1F
100
AcDbEntity
  8
Sichtbare_Kanten_TC_020513_DIN_
  6
Continuous
 62
     7
100
AcDbLine
 10
109.127781560252
 20
111.415550482358
 30
0.0
 11
109.127781560252
 21
113.53398253425
 31
0.0
  0
LINE
  5
2B5
330
1F
100
AcDbEntity
  8
Sichtbare_Kanten_TC_020513_DIN_
  6
Continuous
 62
     7
100
AcDbLine
 10
109.127782418558
 20
111.213228626093
 30
0.0
 11
109.127782418558
 21
111.415550632318
 31
0.0
  0
LINE
  5
2B6
330
1F
100
AcDbEntity
  8
Sichtbare_Kanten_TC_020513_DIN_
  6
Continuous
 62
     7
100
AcDbLine
 10
109.927781560252
 20
116.452414586143
 30
0.0
 11
109.927781560252
 21
114.33398253425
 31
0.0
  0
LINE
  5
2B7
330
1F
100
AcDbEntity
  8
Sichtbare_Kanten_TC_020513_DIN_
  6
Continuous
 62
     7
100
AcDbLine
 10
109.927781655619
 20
116.654735727152
 30
0.0
 11
109.927781655619
 21
116.452414913019
 31
0.0
  0
LINE
  5
2B8
330
1F
100
AcDbEntity
  8
Sichtbare_Kanten_TC_020513_DIN_
  6
Continuous
 62
     7
100
AcDbLine
 10
109.127781560252
 20
113.53398253425
 30
0.0
 11
107.777781560252
 21
113.53398253425
 31
0.0
  0
LINE
  5
2B9
330
1F
100
AcDbEntity
  8
Sichtbare_Kanten_TC_020513_DIN_
  6
Continuous
 62
     7
100
AcDbLine
 10
107.777781560252
 20
113.53398253425
 30
0.0
 11
107.777781560252
 21
114.33398253425
 31
0.0
  0
LINE
  5
2BA
330
1F
100
AcDbEntity
  8
Sichtbare_Kanten_TC_020513_DIN_
  6
Continuous
 62
     7
100
AcDbLine
 10
107.777781560252
 20
114.33398253425
 30
0.0
 11
109.127781560252
 21
114.33398253425
 31
0.0
  0
LINE
  5
2BB
330
1F
100
AcDbEntity
  8
Sichtbare_Kanten_TC_020513_DIN_
  6
Continuous
 62
     7
100
AcDbLine
 10
109.127782418558
 20
116.452414913019
 30
0.0
 11
109.127782418558
 21
116.654735727152
 31
0.0
  0
LINE
  5
2BC
330
1F
100
AcDbEntity
  8
Sichtbare_Kanten_TC_020513_DIN_
  6
Continuous
 62
     7
100
AcDbLine
 10
109.127781560252
 20
114.33398253425
 30
0.0
 11
109.127781560252
 21
116.452414586143
 31
0.0
  0
LINE
  5
2BD
330
1F
100
AcDbEntity
  8
Sichtbare_Kanten_TC_020513_DIN_
  6
Continuous
 62
     7
100
AcDbLine
 10
109.927781560252
 20
114.33398253425
 30
0.0
 11
111.277781560252
 21
114.33398253425
 31
0.0
  0
LINE
  5
2BE
330
1F
100
AcDbEntity
  8
Sichtbare_Kanten_TC_020513_DIN_
  6
Continuous
 62
     7
100
AcDbLine
 10
111.277781560252
 20
114.33398253425
 30
0.0
 11
111.277781560252
 21
113.53398253425
 31
0.0
  0
LINE
  5
2BF
330
1F
100
AcDbEntity
  8
Sichtbare_Kanten_TC_020513_DIN_
  6
Continuous
 62
     7
100
AcDbLine
 10
111.277781560252
 20
113.53398253425
 30
0.0
 11
109.927781560252
 21
113.53398253425
 31
0.0
  0
LINE
  5
2C0
330
1F
100
AcDbEntity
  8
Sichtbare_Kanten_TC_020513_DIN_
  6
Continuous
 62
     7
100
AcDbLine
 10
109.927781655619
 20
111.415550632318
 30
0.0
 11
109.927781655619
 21
111.213228626093
 31
0.0
  0
LINE
  5
2C1
330
1F
100
AcDbEntity
  8
Sichtbare_Kanten_TC_020513_DIN_
  6
Continuous
 62
     7
100
AcDbLine
 10
109.927781560252
 20
113.53398253425
 30
0.0
 11
109.927781560252
 21
111.415550482358
 31
0.0
  0
LINE
  5
2C2
330
1F
100
AcDbEntity
  8
Sichtbare_Kanten_TC_020513_DIN_
  6
Continuous
 62
     7
100
AcDbLine
 10
109.927781560252
 20
89.4524145861428
 30
0.0
 11
109.927781560252
 21
87.3339825342502
 31
0.0
  0
LINE
  5
2C3
330
1F
100
AcDbEntity
  8
Sichtbare_Kanten_TC_020513_DIN_
  6
Continuous
 62
     7
100
AcDbLine
 10
109.927781655619
 20
89.6547364424075
 30
0.0
 11
109.927781655619
 21
89.4524144361819
 31
0.0
  0
LINE
  5
2C4
330
1F
100
AcDbEntity
  8
Sichtbare_Kanten_TC_020513_DIN_
  6
Continuous
 62
     7
100
AcDbLine
 10
109.127781560252
 20
84.4155504823575
 30
0.0
 11
109.127781560252
 21
86.5339825342502
 31
0.0
  0
LINE
  5
2C5
330
1F
100
AcDbEntity
  8
Sichtbare_Kanten_TC_020513_DIN_
  6
Continuous
 62
     7
100
AcDbLine
 10
109.127782418558
 20
84.2132293413485
 30
0.0
 11
109.127782418558
 21
84.4155501554812
 31
0.0
  0
LINE
  5
2C6
330
1F
100
AcDbEntity
  8
Sichtbare_Kanten_TC_020513_DIN_
  6
Continuous
 62
     7
100
AcDbLine
 10
107.777781560252
 20
87.3339825342502
 30
0.0
 11
109.127781560252
 21
87.3339825342502
 31
0.0
  0
LINE
  5
2C7
330
1F
100
AcDbEntity
  8
Sichtbare_Kanten_TC_020513_DIN_
  6
Continuous
 62
     7
100
AcDbLine
 10
107.777781560252
 20
86.5339825342502
 30
0.0
 11
107.777781560252
 21
87.3339825342502
 31
0.0
  0
LINE
  5
2C8
330
1F
100
AcDbEntity
  8
Sichtbare_Kanten_TC_020513_DIN_
  6
Continuous
 62
     7
100
AcDbLine
 10
109.127781560252
 20
86.5339825342502
 30
0.0
 11
107.777781560252
 21
86.5339825342502
 31
0.0
  0
LINE
  5
2C9
330
1F
100
AcDbEntity
  8
Sichtbare_Kanten_TC_020513_DIN_
  6
Continuous
 62
     7
100
AcDbLine
 10
109.927781655619
 20
84.4155501554812
 30
0.0
 11
109.927781655619
 21
84.2132293413485
 31
0.0
  0
LINE
  5
2CA
330
1F
100
AcDbEntity
  8
Sichtbare_Kanten_TC_020513_DIN_
  6
Continuous
 62
     7
100
AcDbLine
 10
109.927781560252
 20
86.5339825342502
 30
0.0
 11
109.927781560252
 21
84.4155504823575
 31
0.0
  0
LINE
  5
2CB
330
1F
100
AcDbEntity
  8
Sichtbare_Kanten_TC_020513_DIN_
  6
Continuous
 62
     7
100
AcDbLine
 10
111.277781560252
 20
86.5339825342502
 30
0.0
 11
109.927781560252
 21
86.5339825342502
 31
0.0
  0
LINE
  5
2CC
330
1F
100
AcDbEntity
  8
Sichtbare_Kanten_TC_020513_DIN_
  6
Continuous
 62
     7
100
AcDbLine
 10
111.277781560252
 20
87.3339825342502
 30
0.0
 11
111.277781560252
 21
86.5339825342502
 31
0.0
  0
LINE
  5
2CD
330
1F
100
AcDbEntity
  8
Sichtbare_Kanten_TC_020513_DIN_
  6
Continuous
 62
     7
100
AcDbLine
 10
109.927781560252
 20
87.3339825342502
 30
0.0
 11
111.277781560252
 21
87.3339825342502
 31
0.0
  0
LINE
  5
2CE
330
1F
100
AcDbEntity
  8
Sichtbare_Kanten_TC_020513_DIN_
  6
Continuous
 62
     7
100
AcDbLine
 10
109.127782418558
 20
89.4524144361819
 30
0.0
 11
109.127782418558
 21
89.6547364424075
 31
0.0
  0
LINE
  5
2CF
330
1F
100
AcDbEntity
  8
Sichtbare_Kanten_TC_020513_DIN_
  6
Continuous
 62
     7
100
AcDbLine
 10
109.127781560252
 20
87.3339825342502
 30
0.0
 11
109.127781560252
 21
89.4524145861428
 31
0.0
  0
LINE
  5
2D0
330
1F
100
AcDbEntity
  8
Sichtbare_Kanten_TC_020513_DIN_
  6
Continuous
 62
     7
100
AcDbLine
 10
101.335953413567
 20
83.4339825342459
 30
0.0
 11
101.335953413567
 21
88.4339825342459
 31
0.0
  0
LINE
  5
2D1
330
1F
100
AcDbEntity
  8
Sichtbare_Kanten_TC_020513_DIN_
  6
Continuous
 62
     7
100
AcDbLine
 10
101.335953413567
 20
83.4339825342459
 30
0.0
 11
102.527781560252
 21
83.4339825342489
 31
0.0
  0
LINE
  5
2D2
330
1F
100
AcDbEntity
  8
Sichtbare_Kanten_TC_020513_DIN_
  6
Continuous
 62
     7
100
AcDbLine
 10
101.335953413567
 20
117.433982534246
 30
0.0
 11
101.335953413567
 21
112.433982534246
 31
0.0
  0
LINE
  5
2D3
330
1F
100
AcDbEntity
  8
Sichtbare_Kanten_TC_020513_DIN_
  6
Continuous
 62
     7
100
AcDbLine
 10
101.335953413567
 20
117.433982534246
 30
0.0
 11
102.527781560252
 21
117.433982534249
 31
0.0
  0
LINE
  5
2D4
330
1F
100
AcDbEntity
  8
Sichtbare_Kanten_TC_020513_DIN_
  6
Continuous
 62
     7
100
AcDbLine
 10
103.027781560252
 20
101.933982534254
 30
0.0
 11
103.527781560252
 21
101.933982534254
 31
0.0
  0
LINE
  5
2D5
330
1F
100
AcDbEntity
  8
Sichtbare_Kanten_TC_020513_DIN_
  6
Continuous
 62
     7
100
AcDbLine
 10
103.527781560252
 20
98.9339825342536
 30
0.0
 11
103.027781560252
 21
98.9339825342537
 31
0.0
  0
LINE
  5
2D6
330
1F
100
AcDbEntity
  8
Sichtbare_Kanten_TC_020513_DIN_
  6
Continuous
 62
     7
100
AcDbLine
 10
103.527781560252
 20
98.9339825342536
 30
0.0
 11
103.527781560252
 21
101.933982534254
 31
0.0
  0
LINE
  5
2D7
330
1F
100
AcDbEntity
  8
Sichtbare_Kanten_TC_020513_DIN_
  6
Continuous
 62
     7
100
AcDbLine
 10
103.027781560252
 20
101.933982534254
 30
0.0
 11
99.0287815602515
 21
103.433482534254
 31
0.0
  0
LINE
  5
2D8
330
1F
100
AcDbEntity
  8
Sichtbare_Kanten_TC_020513_DIN_
  6
Continuous
 62
     7
100
AcDbLine
 10
99.0287815602515
 20
103.433482534254
 30
0.0
 11
99.0287815602515
 21
97.4344825342538
 31
0.0
  0
LINE
  5
2D9
330
1F
100
AcDbEntity
  8
Sichtbare_Kanten_TC_020513_DIN_
  6
Continuous
 62
     7
100
AcDbLine
 10
99.0287815602515
 20
97.4344825342538
 30
0.0
 11
103.027781560252
 21
98.9339825342537
 31
0.0
  0
LINE
  5
2DA
330
1F
100
AcDbEntity
  8
Sichtbare_Kanten_TC_020513_DIN_
  6
Continuous
 62
     7
100
AcDbLine
 10
112.527781560252
 20
96.9339825342493
 30
0.0
 11
112.577781560251
 21
96.9339825342493
 31
0.0
  0
LINE
  5
2DB
330
1F
100
AcDbEntity
  8
Sichtbare_Kanten_TC_020513_DIN_
  6
Continuous
 62
     7
100
AcDbLine
 10
102.527781560252
 20
83.4339825342489
 30
0.0
 11
102.527781560252
 21
88.4339825342493
 31
0.0
  0
LINE
  5
2DC
330
1F
100
AcDbEntity
  8
Sichtbare_Kanten_TC_020513_DIN_
  6
Continuous
 62
     7
100
AcDbLine
 10
109.077781560251
 20
83.4339825342493
 30
0.0
 11
102.527781560252
 21
83.4339825342489
 31
0.0
  0
LINE
  5
2DD
330
1F
100
AcDbEntity
  8
Sichtbare_Kanten_TC_020513_DIN_
  6
Continuous
 62
     7
100
AcDbLine
 10
112.577781560251
 20
96.9339825342493
 30
0.0
 11
112.577781560251
 21
86.9339825342493
 31
0.0
  0
LINE
  5
2DE
330
1F
100
AcDbEntity
  8
Sichtbare_Kanten_TC_020513_DIN_
  6
Continuous
 62
     7
100
AcDbLine
 10
102.527781560252
 20
112.433982534249
 30
0.0
 11
102.527781560252
 21
117.433982534249
 31
0.0
  0
LINE
  5
2DF
330
1F
100
AcDbEntity
  8
Sichtbare_Kanten_TC_020513_DIN_
  6
Continuous
 62
     7
100
AcDbLine
 10
112.577781560251
 20
103.933982534249
 30
0.0
 11
112.527781560252
 21
103.933982534249
 31
0.0
  0
LINE
  5
2E0
330
1F
100
AcDbEntity
  8
Sichtbare_Kanten_TC_020513_DIN_
  6
Continuous
 62
     7
100
AcDbLine
 10
112.577781560251
 20
113.933982534249
 30
0.0
 11
112.577781560251
 21
103.933982534249
 31
0.0
  0
LINE
  5
2E1
330
1F
100
AcDbEntity
  8
Sichtbare_Kanten_TC_020513_DIN_
  6
Continuous
 62
     7
100
AcDbLine
 10
102.527781560252
 20
117.433982534249
 30
0.0
 11
109.077781560251
 21
117.433982534249
 31
0.0
  0
LINE
  5
2E2
330
1F
100
AcDbEntity
  8
Sichtbare_Kanten_TC_020513_DIN_
  6
Continuous
 62
     7
100
AcDbLine
 10
101.027781560252
 20
90.4339825342546
 30
0.0
 11
98.5277815602515
 21
90.4339825342541
 31
0.0
  0
LINE
  5
2E3
330
1F
100
AcDbEntity
  8
Sichtbare_Kanten_TC_020513_DIN_
  6
Continuous
 62
     7
100
AcDbLine
 10
103.027781560252
 20
98.9339825342537
 30
0.0
 11
103.027781560252
 21
92.4339825342547
 31
0.0
  0
LINE
  5
2E4
330
1F
100
AcDbEntity
  8
Sichtbare_Kanten_TC_020513_DIN_
  6
Continuous
 62
     7
100
AcDbLine
 10
99.0277815602515
 20
97.4339825342547
 30
0.0
 11
103.027781560252
 21
98.9339825342537
 31
0.0
  0
LINE
  5
2E5
330
1F
100
AcDbEntity
  8
Sichtbare_Kanten_TC_020513_DIN_
  6
Continuous
 62
     7
100
AcDbLine
 10
99.0277815602515
 20
103.433982534255
 30
0.0
 11
99.0277815602515
 21
97.4339825342547
 31
0.0
  0
LINE
  5
2E6
330
1F
100
AcDbEntity
  8
Sichtbare_Kanten_TC_020513_DIN_
  6
Continuous
 62
     7
100
AcDbLine
 10
103.027781560252
 20
101.933982534254
 30
0.0
 11
99.0277815602515
 21
103.433982534255
 31
0.0
  0
LINE
  5
2E7
330
1F
100
AcDbEntity
  8
Sichtbare_Kanten_TC_020513_DIN_
  6
Continuous
 62
     7
100
AcDbLine
 10
103.027781560252
 20
105.433982534255
 30
0.0
 11
103.027781560252
 21
101.933982534254
 31
0.0
  0
LINE
  5
2E8
330
1F
100
AcDbEntity
  8
Sichtbare_Kanten_TC_020513_DIN_
  6
Continuous
 62
     7
100
AcDbLine
 10
102.027781560252
 20
105.433982534255
 30
0.0
 11
103.027781560252
 21
105.433982534255
 31
0.0
  0
LINE
  5
2E9
330
1F
100
AcDbEntity
  8
Sichtbare_Kanten_TC_020513_DIN_
  6
Continuous
 62
     7
100
AcDbLine
 10
100.027781560252
 20
110.433982534255
 30
0.0
 11
100.027781560252
 21
107.433982534255
 31
0.0
  0
LINE
  5
2EA
330
1F
100
AcDbEntity
  8
Sichtbare_Kanten_TC_020513_DIN_
  6
Continuous
 62
     7
100
AcDbLine
 10
98.5277815602515
 20
110.433982534254
 30
0.0
 11
100.027781560252
 21
110.433982534255
 31
0.0
  0
LINE
  5
2EB
330
1F
100
AcDbEntity
  8
Sichtbare_Kanten_TC_020513_DIN_
  6
Continuous
 62
     7
100
AcDbLine
 10
102.027781560252
 20
97.4909820660899
 30
0.0
 11
102.027781560252
 21
92.4339825342547
 31
0.0
  0
LINE
  5
2EC
330
1F
100
AcDbEntity
  8
Sichtbare_Kanten_TC_020513_DIN_
  6
Continuous
 62
     7
100
AcDbLine
 10
101.027781560252
 20
91.4339825342546
 30
0.0
 11
99.0277815602515
 21
91.4339825342546
 31
0.0
  0
LINE
  5
2ED
330
1F
100
AcDbEntity
  8
Sichtbare_Kanten_TC_020513_DIN_
  6
Continuous
 62
     7
100
AcDbLine
 10
99.0277815602515
 20
91.4339825342546
 30
0.0
 11
99.0277815602515
 21
96.3659820660899
 31
0.0
  0
LINE
  5
2EE
330
1F
100
AcDbEntity
  8
Sichtbare_Kanten_TC_020513_DIN_
  6
Continuous
 62
     7
100
AcDbLine
 10
99.0277815602515
 20
96.3659820660899
 30
0.0
 11
102.027781560252
 21
97.4909820660899
 31
0.0
  0
LINE
  5
2EF
330
1F
100
AcDbEntity
  8
Sichtbare_Kanten_TC_020513_DIN_
  6
Continuous
 62
     7
100
AcDbLine
 10
75.0277815602515
 20
110.433982534255
 30
0.0
 11
76.5277815602515
 21
110.433982534254
 31
0.0
  0
LINE
  5
2F0
330
1F
100
AcDbEntity
  8
Sichtbare_Kanten_TC_020513_DIN_
  6
Continuous
 62
     7
100
AcDbLine
 10
75.0277815602515
 20
107.433982534255
 30
0.0
 11
75.0277815602515
 21
110.433982534255
 31
0.0
  0
LINE
  5
2F1
330
1F
100
AcDbEntity
  8
Sichtbare_Kanten_TC_020513_DIN_
  6
Continuous
 62
     7
100
AcDbLine
 10
72.0277815602515
 20
105.433982534255
 30
0.0
 11
73.0277815602515
 21
105.433982534255
 31
0.0
  0
LINE
  5
2F2
330
1F
100
AcDbEntity
  8
Sichtbare_Kanten_TC_020513_DIN_
  6
Continuous
 62
     7
100
AcDbLine
 10
72.0277815602515
 20
101.933982534254
 30
0.0
 11
72.0277815602515
 21
105.433982534255
 31
0.0
  0
LINE
  5
2F3
330
1F
100
AcDbEntity
  8
Sichtbare_Kanten_TC_020513_DIN_
  6
Continuous
 62
     7
100
AcDbLine
 10
76.0277815602515
 20
103.433982534255
 30
0.0
 11
72.0277815602515
 21
101.933982534254
 31
0.0
  0
LINE
  5
2F4
330
1F
100
AcDbEntity
  8
Sichtbare_Kanten_TC_020513_DIN_
  6
Continuous
 62
     7
100
AcDbLine
 10
76.0277815602515
 20
97.4339825342547
 30
0.0
 11
76.0277815602515
 21
103.433982534255
 31
0.0
  0
LINE
  5
2F5
330
1F
100
AcDbEntity
  8
Sichtbare_Kanten_TC_020513_DIN_
  6
Continuous
 62
     7
100
AcDbLine
 10
72.0277815602515
 20
98.9339825342537
 30
0.0
 11
76.0277815602515
 21
97.4339825342547
 31
0.0
  0
LINE
  5
2F6
330
1F
100
AcDbEntity
  8
Sichtbare_Kanten_TC_020513_DIN_
  6
Continuous
 62
     7
100
AcDbLine
 10
72.0277815602515
 20
92.4339825342547
 30
0.0
 11
72.0277815602515
 21
98.9339825342537
 31
0.0
  0
LINE
  5
2F7
330
1F
100
AcDbEntity
  8
Sichtbare_Kanten_TC_020513_DIN_
  6
Continuous
 62
     7
100
AcDbLine
 10
76.5277815602515
 20
90.4339825342541
 30
0.0
 11
74.0277815602515
 21
90.4339825342546
 31
0.0
  0
LINE
  5
2F8
330
1F
100
AcDbEntity
  8
Sichtbare_Kanten_TC_020513_DIN_
  6
Continuous
 62
     7
100
AcDbLine
 10
76.0277815602515
 20
96.3659820660899
 30
0.0
 11
76.0277815602515
 21
91.4339825342546
 31
0.0
  0
LINE
  5
2F9
330
1F
100
AcDbEntity
  8
Sichtbare_Kanten_TC_020513_DIN_
  6
Continuous
 62
     7
100
AcDbLine
 10
76.0277815602515
 20
91.4339825342546
 30
0.0
 11
74.0277815602515
 21
91.4339825342546
 31
0.0
  0
LINE
  5
2FA
330
1F
100
AcDbEntity
  8
Sichtbare_Kanten_TC_020513_DIN_
  6
Continuous
 62
     7
100
AcDbLine
 10
73.0277815602515
 20
92.4339825342547
 30
0.0
 11
73.0277815602515
 21
97.4909820660899
 31
0.0
  0
LINE
  5
2FB
330
1F
100
AcDbEntity
  8
Sichtbare_Kanten_TC_020513_DIN_
  6
Continuous
 62
     7
100
AcDbLine
 10
73.0277815602515
 20
97.4909820660899
 30
0.0
 11
76.0277815602515
 21
96.3659820660899
 31
0.0
  0
LINE
  5
2FC
330
1F
100
AcDbEntity
  8
Sichtbare_Kanten_TC_020513_DIN_
  6
Continuous
 62
     7
100
AcDbLine
 10
174.279468771212
 20
170.784662489797
 30
0.0
 11
175.058715199129
 21
170.784662489797
 31
0.0
  0
LINE
  5
2FD
330
1F
100
AcDbEntity
  8
Sichtbare_Kanten_TC_020513_DIN_
  6
Continuous
 62
     7
100
AcDbLine
 10
175.058715199129
 20
157.284662489797
 30
0.0
 11
170.058715199129
 21
157.284662489797
 31
0.0
  0
LINE
  5
2FE
330
1F
100
AcDbEntity
  8
Sichtbare_Kanten_TC_020513_DIN_
  6
Continuous
 62
     7
100
AcDbLine
 10
175.058715199129
 20
170.784662489797
 30
0.0
 11
175.058715199128
 21
167.584662489797
 31
0.0
  0
LINE
  5
2FF
330
1F
100
AcDbEntity
  8
Sichtbare_Kanten_TC_020513_DIN_
  6
Continuous
 62
     7
100
AcDbLine
 10
170.058715199128
 20
169.684662489797
 30
0.0
 11
170.058715199128
 21
169.784662489797
 31
0.0
  0
LINE
  5
300
330
1F
100
AcDbEntity
  8
Sichtbare_Kanten_TC_020513_DIN_
  6
Continuous
 62
     7
100
AcDbLine
 10
141.058715199129
 20
170.784662489797
 30
0.0
 11
141.837961627046
 21
170.784662489797
 31
0.0
  0
LINE
  5
301
330
1F
100
AcDbEntity
  8
Sichtbare_Kanten_TC_020513_DIN_
  6
Continuous
 62
     7
100
AcDbLine
 10
141.058715199128
 20
167.584662489797
 30
0.0
 11
141.058715199129
 21
170.784662489797
 31
0.0
  0
LINE
  5
302
330
1F
100
AcDbEntity
  8
Sichtbare_Kanten_TC_020513_DIN_
  6
Continuous
 62
     7
100
AcDbLine
 10
168.837961627045
 20
170.784662489797
 30
0.0
 11
147.27946877121
 21
170.784662489797
 31
0.0
  0
LINE
  5
303
330
1F
100
AcDbEntity
  8
Sichtbare_Kanten_TC_020513_DIN_
  6
Continuous
 62
     7
100
AcDbLine
 10
165.058715199126
 20
168.784662489797
 30
0.0
 11
165.058715199126
 21
170.784662489797
 31
0.0
  0
LINE
  5
304
330
1F
100
AcDbEntity
  8
Sichtbare_Kanten_TC_020513_DIN_
  6
Continuous
 62
     7
100
AcDbLine
 10
151.058715199127
 20
170.784662489797
 30
0.0
 11
151.058715199126
 21
168.784662489797
 31
0.0
  0
LINE
  5
305
330
1F
100
AcDbEntity
  8
Sichtbare_Kanten_TC_020513_DIN_
  6
Continuous
 62
     7
100
AcDbLine
 10
168.573826883929
 20
153.574662022497
 30
0.0
 11
169.23325810303
 21
153.574662022497
 31
0.0
  0
LINE
  5
306
330
1F
100
AcDbEntity
  8
Sichtbare_Kanten_TC_020513_DIN_
  6
Continuous
 62
     7
100
AcDbLine
 10
168.588440805365
 20
153.584662489797
 30
0.0
 11
168.588440805365
 21
153.574662489797
 31
0.0
  0
LINE
  5
307
330
1F
100
AcDbEntity
  8
Sichtbare_Kanten_TC_020513_DIN_
  6
Continuous
 62
     7
100
AcDbLine
 10
168.596824951832
 20
153.584662489797
 30
0.0
 11
168.596824951832
 21
153.574662489797
 31
0.0
  0
LINE
  5
308
330
1F
100
AcDbEntity
  8
Sichtbare_Kanten_TC_020513_DIN_
  6
Continuous
 62
     7
100
AcDbLine
 10
169.233257888144
 20
153.584662489797
 30
0.0
 11
169.233257888144
 21
153.574662489797
 31
0.0
  0
LINE
  5
309
330
1F
100
AcDbEntity
  8
Sichtbare_Kanten_TC_020513_DIN_
  6
Continuous
 62
     7
100
AcDbLine
 10
169.233257888144
 20
153.574662489797
 30
0.0
 11
169.234782278411
 21
153.574662489797
 31
0.0
  0
LINE
  5
30A
330
1F
100
AcDbEntity
  8
Sichtbare_Kanten_TC_020513_DIN_
  6
Continuous
 62
     7
100
AcDbLine
 10
169.234782278411
 20
153.584662489797
 30
0.0
 11
169.234782278411
 21
153.574662489797
 31
0.0
  0
LINE
  5
30B
330
1F
100
AcDbEntity
  8
Sichtbare_Kanten_TC_020513_DIN_
  6
Continuous
 62
     7
100
AcDbLine
 10
146.437907270387
 20
153.584662489797
 30
0.0
 11
146.437907270387
 21
153.574662489797
 31
0.0
  0
LINE
  5
30C
330
1F
100
AcDbEntity
  8
Sichtbare_Kanten_TC_020513_DIN_
  6
Continuous
 62
     7
100
AcDbLine
 10
146.437907270387
 20
153.574662489797
 30
0.0
 11
146.57205361385
 21
153.574662489797
 31
0.0
  0
LINE
  5
30D
330
1F
100
AcDbEntity
  8
Sichtbare_Kanten_TC_020513_DIN_
  6
Continuous
 62
     7
100
AcDbLine
 10
146.860925569368
 20
153.574662489797
 30
0.0
 11
147.129218256298
 21
153.574662489797
 31
0.0
  0
LINE
  5
30E
330
1F
100
AcDbEntity
  8
Sichtbare_Kanten_TC_020513_DIN_
  6
Continuous
 62
     7
100
AcDbLine
 10
146.994309717702
 20
153.584662489797
 30
0.0
 11
146.994309717702
 21
153.574662489797
 31
0.0
  0
LINE
  5
30F
330
1F
100
AcDbEntity
  8
Sichtbare_Kanten_TC_020513_DIN_
  6
Continuous
 62
     7
100
AcDbLine
 10
147.129218256298
 20
153.584662489797
 30
0.0
 11
147.129218256298
 21
153.574662489797
 31
0.0
  0
LINE
  5
310
330
1F
100
AcDbEntity
  8
Sichtbare_Kanten_TC_020513_DIN_
  6
Continuous
 62
     7
100
AcDbLine
 10
169.326245694414
 20
153.584662489797
 30
0.0
 11
169.326245694414
 21
153.574662489797
 31
0.0
  0
LINE
  5
311
330
1F
100
AcDbEntity
  8
Sichtbare_Kanten_TC_020513_DIN_
  6
Continuous
 62
     7
100
AcDbLine
 10
169.326245694414
 20
153.574662489797
 30
0.0
 11
169.460392037876
 21
153.574662489797
 31
0.0
  0
LINE
  5
312
330
1F
100
AcDbEntity
  8
Sichtbare_Kanten_TC_020513_DIN_
  6
Continuous
 62
     7
100
AcDbLine
 10
169.749263993394
 20
153.574662489797
 30
0.0
 11
170.017556680325
 21
153.574662489797
 31
0.0
  0
LINE
  5
313
330
1F
100
AcDbEntity
  8
Sichtbare_Kanten_TC_020513_DIN_
  6
Continuous
 62
     7
100
AcDbLine
 10
169.882648141729
 20
153.584662489797
 30
0.0
 11
169.882648141729
 21
153.574662489797
 31
0.0
  0
LINE
  5
314
330
1F
100
AcDbEntity
  8
Sichtbare_Kanten_TC_020513_DIN_
  6
Continuous
 62
     7
100
AcDbLine
 10
170.017556680325
 20
153.584662489797
 30
0.0
 11
170.017556680325
 21
153.574662489797
 31
0.0
  0
LINE
  5
315
330
1F
100
AcDbEntity
  8
Sichtbare_Kanten_TC_020513_DIN_
  6
Continuous
 62
     7
100
AcDbLine
 10
146.572053613844
 20
153.584662489797
 30
0.0
 11
146.57205361385
 21
153.574662489797
 31
0.0
  0
LINE
  5
316
330
1F
100
AcDbEntity
  8
Sichtbare_Kanten_TC_020513_DIN_
  6
Continuous
 62
     7
100
AcDbLine
 10
146.572053764956
 20
153.574662022497
 30
0.0
 11
146.860925291674
 21
153.574662022497
 31
0.0
  0
LINE
  5
317
330
1F
100
AcDbEntity
  8
Sichtbare_Kanten_TC_020513_DIN_
  6
Continuous
 62
     7
100
AcDbLine
 10
146.860925569368
 20
153.584662489797
 30
0.0
 11
146.860925569368
 21
153.574662489797
 31
0.0
  0
LINE
  5
318
330
1F
100
AcDbEntity
  8
Sichtbare_Kanten_TC_020513_DIN_
  6
Continuous
 62
     7
100
AcDbLine
 10
146.940193863232
 20
153.584662489797
 30
0.0
 11
146.940193863238
 21
153.574662489797
 31
0.0
  0
LINE
  5
319
330
1F
100
AcDbEntity
  8
Sichtbare_Kanten_TC_020513_DIN_
  6
Continuous
 62
     7
100
AcDbLine
 10
169.46039203787
 20
153.584662489797
 30
0.0
 11
169.460392037876
 21
153.574662489797
 31
0.0
  0
LINE
  5
31A
330
1F
100
AcDbEntity
  8
Sichtbare_Kanten_TC_020513_DIN_
  6
Continuous
 62
     7
100
AcDbLine
 10
169.460392330783
 20
153.574662022497
 30
0.0
 11
169.749263857501
 21
153.574662022497
 31
0.0
  0
LINE
  5
31B
330
1F
100
AcDbEntity
  8
Sichtbare_Kanten_TC_020513_DIN_
  6
Continuous
 62
     7
100
AcDbLine
 10
169.749263993394
 20
153.584662489797
 30
0.0
 11
169.749263993394
 21
153.574662489797
 31
0.0
  0
LINE
  5
31C
330
1F
100
AcDbEntity
  8
Sichtbare_Kanten_TC_020513_DIN_
  6
Continuous
 62
     7
100
AcDbLine
 10
169.828532287259
 20
153.584662489797
 30
0.0
 11
169.828532287264
 21
153.574662489797
 31
0.0
  0
LINE
  5
31D
330
1F
100
AcDbEntity
  8
Sichtbare_Kanten_TC_020513_DIN_
  6
Continuous
 62
     7
100
AcDbLine
 10
168.573826542157
 20
153.584662489797
 30
0.0
 11
168.573826542157
 21
153.574662489797
 31
0.0
  0
LINE
  5
31E
330
1F
100
AcDbEntity
  8
Sichtbare_Kanten_TC_020513_DIN_
  6
Continuous
 62
     7
100
AcDbLine
 10
168.558715199129
 20
153.584662489797
 30
0.0
 11
175.058715199129
 21
153.584662489797
 31
0.0
  0
LINE
  5
31F
330
1F
100
AcDbEntity
  8
Sichtbare_Kanten_TC_020513_DIN_
  6
Continuous
 62
     7
100
AcDbLine
 10
141.058715199129
 20
153.584662489797
 30
0.0
 11
147.558715199129
 21
153.584662489797
 31
0.0
  0
LINE
  5
320
330
1F
100
AcDbEntity
  8
Sichtbare_Kanten_TC_020513_DIN_
  6
Continuous
 62
     7
100
AcDbLine
 10
168.558715199129
 20
150.584662489797
 30
0.0
 11
147.558715199129
 21
150.584662489797
 31
0.0
  0
LINE
  5
321
330
1F
100
AcDbEntity
  8
Sichtbare_Kanten_TC_020513_DIN_
  6
Continuous
 62
     7
100
AcDbLine
 10
175.058715199128
 20
167.584662489797
 30
0.0
 11
175.058715199129
 21
153.584662489797
 31
0.0
  0
LINE
  5
322
330
1F
100
AcDbEntity
  8
Sichtbare_Kanten_TC_020513_DIN_
  6
Continuous
 62
     7
100
AcDbLine
 10
141.058715199129
 20
153.584662489797
 30
0.0
 11
141.058715199128
 21
167.584662489797
 31
0.0
  0
LINE
  5
323
330
1F
100
AcDbEntity
  8
Sichtbare_Kanten_TC_020513_DIN_
  6
Continuous
 62
     7
100
AcDbLine
 10
141.058715199129
 20
168.784662489797
 30
0.0
 11
175.058715199129
 21
168.784662489797
 31
0.0
  0
LINE
  5
324
330
1F
100
AcDbEntity
  8
Sichtbare_Kanten_TC_020513_DIN_
  6
Continuous
 62
     7
100
AcDbLine
 10
169.291184703858
 20
184.584662489797
 30
0.0
 11
169.291184703858
 21
184.594662489797
 31
0.0
  0
LINE
  5
325
330
1F
100
AcDbEntity
  8
Sichtbare_Kanten_TC_020513_DIN_
  6
Continuous
 62
     7
100
AcDbLine
 10
169.291184703858
 20
184.594662489797
 30
0.0
 11
169.157038360395
 21
184.594662489797
 31
0.0
  0
LINE
  5
326
330
1F
100
AcDbEntity
  8
Sichtbare_Kanten_TC_020513_DIN_
  6
Continuous
 62
     7
100
AcDbLine
 10
168.868166404865
 20
184.594662489797
 30
0.0
 11
168.599873717947
 21
184.594662489797
 31
0.0
  0
LINE
  5
327
330
1F
100
AcDbEntity
  8
Sichtbare_Kanten_TC_020513_DIN_
  6
Continuous
 62
     7
100
AcDbLine
 10
168.734782256542
 20
184.584662489797
 30
0.0
 11
168.734782256542
 21
184.594662489797
 31
0.0
  0
LINE
  5
328
330
1F
100
AcDbEntity
  8
Sichtbare_Kanten_TC_020513_DIN_
  6
Continuous
 62
     7
100
AcDbLine
 10
168.599873717947
 20
184.584662489797
 30
0.0
 11
168.599873717947
 21
184.594662489797
 31
0.0
  0
LINE
  5
329
330
1F
100
AcDbEntity
  8
Sichtbare_Kanten_TC_020513_DIN_
  6
Continuous
 62
     7
100
AcDbLine
 10
169.157038360389
 20
184.584662489797
 30
0.0
 11
169.157038360395
 21
184.594662489797
 31
0.0
  0
LINE
  5
32A
330
1F
100
AcDbEntity
  8
Sichtbare_Kanten_TC_020513_DIN_
  6
Continuous
 62
     7
100
AcDbLine
 10
169.157038067477
 20
184.594662718679
 30
0.0
 11
168.868166540759
 21
184.594662718679
 31
0.0
  0
LINE
  5
32B
330
1F
100
AcDbEntity
  8
Sichtbare_Kanten_TC_020513_DIN_
  6
Continuous
 62
     7
100
AcDbLine
 10
168.868166404865
 20
184.584662489797
 30
0.0
 11
168.868166404865
 21
184.594662489797
 31
0.0
  0
LINE
  5
32C
330
1F
100
AcDbEntity
  8
Sichtbare_Kanten_TC_020513_DIN_
  6
Continuous
 62
     7
100
AcDbLine
 10
168.788898111001
 20
184.584662489797
 30
0.0
 11
168.788898111007
 21
184.594662489797
 31
0.0
  0
LINE
  5
32D
330
1F
100
AcDbEntity
  8
Sichtbare_Kanten_TC_020513_DIN_
  6
Continuous
 62
     7
100
AcDbLine
 10
147.045376784416
 20
184.584662489797
 30
0.0
 11
147.045376784416
 21
184.594662489797
 31
0.0
  0
LINE
  5
32E
330
1F
100
AcDbEntity
  8
Sichtbare_Kanten_TC_020513_DIN_
  6
Continuous
 62
     7
100
AcDbLine
 10
147.045376633304
 20
184.594662718679
 30
0.0
 11
146.756505106585
 21
184.594662718679
 31
0.0
  0
LINE
  5
32F
330
1F
100
AcDbEntity
  8
Sichtbare_Kanten_TC_020513_DIN_
  6
Continuous
 62
     7
100
AcDbLine
 10
146.756504828892
 20
184.584662489797
 30
0.0
 11
146.756504828892
 21
184.594662489797
 31
0.0
  0
LINE
  5
330
330
1F
100
AcDbEntity
  8
Sichtbare_Kanten_TC_020513_DIN_
  6
Continuous
 62
     7
100
AcDbLine
 10
146.756504828892
 20
184.594662489797
 30
0.0
 11
146.488212141974
 21
184.594662489797
 31
0.0
  0
LINE
  5
331
330
1F
100
AcDbEntity
  8
Sichtbare_Kanten_TC_020513_DIN_
  6
Continuous
 62
     7
100
AcDbLine
 10
146.677236535028
 20
184.584662489797
 30
0.0
 11
146.677236535028
 21
184.594662489797
 31
0.0
  0
LINE
  5
332
330
1F
100
AcDbEntity
  8
Sichtbare_Kanten_TC_020513_DIN_
  6
Continuous
 62
     7
100
AcDbLine
 10
170.043603514331
 20
184.594662718679
 30
0.0
 11
169.38417229523
 21
184.594662718679
 31
0.0
  0
LINE
  5
333
330
1F
100
AcDbEntity
  8
Sichtbare_Kanten_TC_020513_DIN_
  6
Continuous
 62
     7
100
AcDbLine
 10
170.028989592895
 20
184.584662489797
 30
0.0
 11
170.028989592895
 21
184.594662489797
 31
0.0
  0
LINE
  5
334
330
1F
100
AcDbEntity
  8
Sichtbare_Kanten_TC_020513_DIN_
  6
Continuous
 62
     7
100
AcDbLine
 10
170.020605446428
 20
184.584662489797
 30
0.0
 11
170.020605446428
 21
184.594662489797
 31
0.0
  0
LINE
  5
335
330
1F
100
AcDbEntity
  8
Sichtbare_Kanten_TC_020513_DIN_
  6
Continuous
 62
     7
100
AcDbLine
 10
169.384172510115
 20
184.584662489797
 30
0.0
 11
169.384172510115
 21
184.594662489797
 31
0.0
  0
LINE
  5
336
330
1F
100
AcDbEntity
  8
Sichtbare_Kanten_TC_020513_DIN_
  6
Continuous
 62
     7
100
AcDbLine
 10
169.384172510115
 20
184.594662489797
 30
0.0
 11
169.382648119849
 21
184.594662489797
 31
0.0
  0
LINE
  5
337
330
1F
100
AcDbEntity
  8
Sichtbare_Kanten_TC_020513_DIN_
  6
Continuous
 62
     7
100
AcDbLine
 10
169.382648119849
 20
184.584662489797
 30
0.0
 11
169.382648119849
 21
184.594662489797
 31
0.0
  0
LINE
  5
338
330
1F
100
AcDbEntity
  8
Sichtbare_Kanten_TC_020513_DIN_
  6
Continuous
 62
     7
100
AcDbLine
 10
147.179523127885
 20
184.584662489797
 30
0.0
 11
147.179523127885
 21
184.594662489797
 31
0.0
  0
LINE
  5
339
330
1F
100
AcDbEntity
  8
Sichtbare_Kanten_TC_020513_DIN_
  6
Continuous
 62
     7
100
AcDbLine
 10
147.179523127885
 20
184.594662489797
 30
0.0
 11
147.045376784416
 21
184.594662489797
 31
0.0
  0
LINE
  5
33A
330
1F
100
AcDbEntity
  8
Sichtbare_Kanten_TC_020513_DIN_
  6
Continuous
 62
     7
100
AcDbLine
 10
146.623120680569
 20
184.584662489797
 30
0.0
 11
146.623120680569
 21
184.594662489797
 31
0.0
  0
LINE
  5
33B
330
1F
100
AcDbEntity
  8
Sichtbare_Kanten_TC_020513_DIN_
  6
Continuous
 62
     7
100
AcDbLine
 10
146.488212141974
 20
184.584662489797
 30
0.0
 11
146.488212141974
 21
184.594662489797
 31
0.0
  0
LINE
  5
33C
330
1F
100
AcDbEntity
  8
Sichtbare_Kanten_TC_020513_DIN_
  6
Continuous
 62
     7
100
AcDbLine
 10
170.043603856103
 20
184.584662489797
 30
0.0
 11
170.043603856103
 21
184.594662489797
 31
0.0
  0
LINE
  5
33D
330
1F
100
AcDbEntity
  8
Sichtbare_Kanten_TC_020513_DIN_
  6
Continuous
 62
     7
100
AcDbLine
 10
143.058715199132
 20
184.584662489797
 30
0.0
 11
148.05871519913
 21
184.584662489797
 31
0.0
  0
LINE
  5
33E
330
1F
100
AcDbEntity
  8
Sichtbare_Kanten_TC_020513_DIN_
  6
Continuous
 62
     7
100
AcDbLine
 10
143.058715199132
 20
184.584662489797
 30
0.0
 11
143.058715199132
 21
171.684662489797
 31
0.0
  0
LINE
  5
33F
330
1F
100
AcDbEntity
  8
Sichtbare_Kanten_TC_020513_DIN_
  6
Continuous
 62
     7
100
AcDbLine
 10
172.05871519913
 20
184.584662489797
 30
0.0
 11
168.05871519913
 21
184.584662489797
 31
0.0
  0
LINE
  5
340
330
1F
100
AcDbEntity
  8
Sichtbare_Kanten_TC_020513_DIN_
  6
Continuous
 62
     7
100
AcDbLine
 10
162.558715199128
 20
164.753289456394
 30
0.0
 11
162.558715199127
 21
156.784662489797
 31
0.0
  0
LINE
  5
341
330
1F
100
AcDbEntity
  8
Sichtbare_Kanten_TC_020513_DIN_
  6
Continuous
 62
     7
100
AcDbLine
 10
162.558715199127
 20
156.784662489797
 30
0.0
 11
163.558715199127
 21
156.784662489797
 31
0.0
  0
LINE
  5
342
330
1F
100
AcDbEntity
  8
Sichtbare_Kanten_TC_020513_DIN_
  6
Continuous
 62
     7
100
AcDbLine
 10
163.558715199127
 20
156.784662489797
 30
0.0
 11
163.558715199127
 21
159.784662489797
 31
0.0
  0
LINE
  5
343
330
1F
100
AcDbEntity
  8
Sichtbare_Kanten_TC_020513_DIN_
  6
Continuous
 62
     7
100
AcDbLine
 10
163.558715199127
 20
159.784662489797
 30
0.0
 11
162.558715199127
 21
159.784662489797
 31
0.0
  0
LINE
  5
344
330
1F
100
AcDbEntity
  8
Sichtbare_Kanten_TC_020513_DIN_
  6
Continuous
 62
     7
100
AcDbLine
 10
153.558715199127
 20
156.784662489797
 30
0.0
 11
153.558715199128
 21
164.753289456394
 31
0.0
  0
LINE
  5
345
330
1F
100
AcDbEntity
  8
Sichtbare_Kanten_TC_020513_DIN_
  6
Continuous
 62
     7
100
AcDbLine
 10
152.558715199127
 20
159.784662489797
 30
0.0
 11
152.558715199127
 21
156.784662489797
 31
0.0
  0
LINE
  5
346
330
1F
100
AcDbEntity
  8
Sichtbare_Kanten_TC_020513_DIN_
  6
Continuous
 62
     7
100
AcDbLine
 10
152.558715199127
 20
156.784662489797
 30
0.0
 11
153.558715199127
 21
156.784662489797
 31
0.0
  0
LINE
  5
347
330
1F
100
AcDbEntity
  8
Sichtbare_Kanten_TC_020513_DIN_
  6
Continuous
 62
     7
100
AcDbLine
 10
153.558715199127
 20
159.784662489797
 30
0.0
 11
152.558715199127
 21
159.784662489797
 31
0.0
  0
LINE
  5
348
330
1F
100
AcDbEntity
  8
Sichtbare_Kanten_TC_020513_DIN_
  6
Continuous
 62
     7
100
AcDbLine
 10
162.027342165725
 20
156.284662489797
 30
0.0
 11
154.090088232531
 21
156.284662489797
 31
0.0
  0
LINE
  5
349
330
1F
100
AcDbEntity
  8
Sichtbare_Kanten_TC_020513_DIN_
  6
Continuous
 62
     7
100
AcDbLine
 10
154.090088232531
 20
165.284662489797
 30
0.0
 11
162.027342165725
 21
165.284662489797
 31
0.0
  0
LINE
  5
34A
330
1F
100
AcDbEntity
  8
Sichtbare_Kanten_TC_020513_DIN_
  6
Continuous
 62
     7
100
AcDbLine
 10
162.558715199127
 20
156.784662489797
 30
0.0
 11
162.558715199129
 21
150.584662489797
 31
0.0
  0
LINE
  5
34B
330
1F
100
AcDbEntity
  8
Sichtbare_Kanten_TC_020513_DIN_
  6
Continuous
 62
     7
100
AcDbLine
 10
153.558715199129
 20
150.584662489797
 30
0.0
 11
153.558715199127
 21
156.784662489797
 31
0.0
  0
LINE
  5
34C
330
1F
100
AcDbEntity
  8
Sichtbare_Kanten_TC_020513_DIN_
  6
Continuous
 62
     7
100
AcDbLine
 10
168.558715199129
 20
150.584662489797
 30
0.0
 11
168.558715199129
 21
153.584662489797
 31
0.0
  0
LINE
  5
34D
330
1F
100
AcDbEntity
  8
Sichtbare_Kanten_TC_020513_DIN_
  6
Continuous
 62
     7
100
AcDbLine
 10
147.558715199129
 20
153.584662489797
 30
0.0
 11
147.558715199129
 21
150.584662489797
 31
0.0
  0
LINE
  5
34E
330
1F
100
AcDbEntity
  8
Sichtbare_Kanten_TC_020513_DIN_
  6
Continuous
 62
     7
100
AcDbLine
 10
153.558715199129
 20
153.283662489797
 30
0.0
 11
162.558715199129
 21
153.283662489797
 31
0.0
  0
LINE
  5
34F
330
1F
100
AcDbEntity
  8
Sichtbare_Kanten_TC_020513_DIN_
  6
Continuous
 62
     7
100
AcDbLine
 10
147.279468771209
 20
170.484662489797
 30
0.0
 11
147.279468771209
 21
171.484662489797
 31
0.0
  0
LINE
  5
350
330
1F
100
AcDbEntity
  8
Sichtbare_Kanten_TC_020513_DIN_
  6
Continuous
 62
     7
100
AcDbLine
 10
147.279468771209
 20
170.484662489797
 30
0.0
 11
147.308715199126
 21
170.484662489797
 31
0.0
  0
LINE
  5
351
330
1F
100
AcDbEntity
  8
Sichtbare_Kanten_TC_020513_DIN_
  6
Continuous
 62
     7
100
AcDbLine
 10
141.808715199126
 20
170.484662489797
 30
0.0
 11
141.837961627044
 21
170.484662489797
 31
0.0
  0
LINE
  5
352
330
1F
100
AcDbEntity
  8
Sichtbare_Kanten_TC_020513_DIN_
  6
Continuous
 62
     7
100
AcDbLine
 10
141.837961627044
 20
171.484662489797
 30
0.0
 11
141.837961627044
 21
170.484662489797
 31
0.0
  0
LINE
  5
353
330
1F
100
AcDbEntity
  8
Sichtbare_Kanten_TC_020513_DIN_
  6
Continuous
 62
     7
100
AcDbLine
 10
142.040283147234
 20
171.684662489797
 30
0.0
 11
147.077147251019
 21
171.684662489797
 31
0.0
  0
LINE
  5
354
330
1F
100
AcDbEntity
  8
Sichtbare_Kanten_TC_020513_DIN_
  6
Continuous
 62
     7
100
AcDbLine
 10
141.808715199126
 20
169.784662489797
 30
0.0
 11
147.308715199126
 21
169.784662489797
 31
0.0
  0
LINE
  5
355
330
1F
100
AcDbEntity
  8
Sichtbare_Kanten_TC_020513_DIN_
  6
Continuous
 62
     7
100
AcDbLine
 10
141.908715199126
 20
169.684662489797
 30
0.0
 11
147.208715199126
 21
169.684662489797
 31
0.0
  0
LINE
  5
356
330
1F
100
AcDbEntity
  8
Sichtbare_Kanten_TC_020513_DIN_
  6
Continuous
 62
     7
100
AcDbLine
 10
143.058715199126
 20
163.784662489797
 30
0.0
 11
146.058715199126
 21
163.784662489797
 31
0.0
  0
LINE
  5
357
330
1F
100
AcDbEntity
  8
Sichtbare_Kanten_TC_020513_DIN_
  6
Continuous
 62
     7
100
AcDbLine
 10
143.058715199126
 20
159.784662489797
 30
0.0
 11
146.058715199126
 21
159.784662489797
 31
0.0
  0
LINE
  5
358
330
1F
100
AcDbEntity
  8
Sichtbare_Kanten_TC_020513_DIN_
  6
Continuous
 62
     7
100
AcDbLine
 10
143.558715199126
 20
159.284662489797
 30
0.0
 11
145.558715199126
 21
159.284662489797
 31
0.0
  0
LINE
  5
359
330
1F
100
AcDbEntity
  8
Sichtbare_Kanten_TC_020513_DIN_
  6
Continuous
 62
     7
100
AcDbLine
 10
174.279468771209
 20
170.484662489797
 30
0.0
 11
174.279468771209
 21
171.484662489797
 31
0.0
  0
LINE
  5
35A
330
1F
100
AcDbEntity
  8
Sichtbare_Kanten_TC_020513_DIN_
  6
Continuous
 62
     7
100
AcDbLine
 10
168.837961627044
 20
171.484662489797
 30
0.0
 11
168.837961627044
 21
170.484662489797
 31
0.0
  0
LINE
  5
35B
330
1F
100
AcDbEntity
  8
Sichtbare_Kanten_TC_020513_DIN_
  6
Continuous
 62
     7
100
AcDbLine
 10
168.808715199126
 20
170.484662489797
 30
0.0
 11
168.837961627044
 21
170.484662489797
 31
0.0
  0
LINE
  5
35C
330
1F
100
AcDbEntity
  8
Sichtbare_Kanten_TC_020513_DIN_
  6
Continuous
 62
     7
100
AcDbLine
 10
174.279468771209
 20
170.484662489797
 30
0.0
 11
174.308715199126
 21
170.484662489797
 31
0.0
  0
LINE
  5
35D
330
1F
100
AcDbEntity
  8
Sichtbare_Kanten_TC_020513_DIN_
  6
Continuous
 62
     7
100
AcDbLine
 10
174.077147251019
 20
171.684662489797
 30
0.0
 11
169.040283147234
 21
171.684662489797
 31
0.0
  0
LINE
  5
35E
330
1F
100
AcDbEntity
  8
Sichtbare_Kanten_TC_020513_DIN_
  6
Continuous
 62
     7
100
AcDbLine
 10
174.308715199126
 20
169.784662489797
 30
0.0
 11
168.808715199126
 21
169.784662489797
 31
0.0
  0
LINE
  5
35F
330
1F
100
AcDbEntity
  8
Sichtbare_Kanten_TC_020513_DIN_
  6
Continuous
 62
     7
100
AcDbLine
 10
174.208715199126
 20
169.684662489797
 30
0.0
 11
168.908715199126
 21
169.684662489797
 31
0.0
  0
LINE
  5
360
330
1F
100
AcDbEntity
  8
Sichtbare_Kanten_TC_020513_DIN_
  6
Continuous
 62
     7
100
AcDbLine
 10
173.058715199126
 20
163.784662489797
 30
0.0
 11
170.058715199126
 21
163.784662489797
 31
0.0
  0
LINE
  5
361
330
1F
100
AcDbEntity
  8
Sichtbare_Kanten_TC_020513_DIN_
  6
Continuous
 62
     7
100
AcDbLine
 10
173.058715199126
 20
159.784662489797
 30
0.0
 11
170.058715199126
 21
159.784662489797
 31
0.0
  0
LINE
  5
362
330
1F
100
AcDbEntity
  8
Sichtbare_Kanten_TC_020513_DIN_
  6
Continuous
 62
     7
100
AcDbLine
 10
172.558715199126
 20
159.284662489797
 30
0.0
 11
170.558715199126
 21
159.284662489797
 31
0.0
  0
LINE
  5
363
330
1F
100
AcDbEntity
  8
Sichtbare_Kanten_TC_020513_DIN_
  6
Continuous
 62
     7
100
AcDbLine
 10
170.058715199128
 20
167.584662489797
 30
0.0
 11
170.058715199126
 21
159.784662489797
 31
0.0
  0
LINE
  5
364
330
1F
100
AcDbEntity
  8
Sichtbare_Kanten_TC_020513_DIN_
  6
Continuous
 62
     7
100
AcDbLine
 10
170.058715199126
 20
159.784662489797
 30
0.0
 11
170.058715199129
 21
157.284662489797
 31
0.0
  0
LINE
  5
365
330
1F
100
AcDbEntity
  8
Sichtbare_Kanten_TC_020513_DIN_
  6
Continuous
 62
     7
100
AcDbLine
 10
146.058715199128
 20
167.584662489797
 30
0.0
 11
146.058715199126
 21
159.784662489797
 31
0.0
  0
LINE
  5
366
330
1F
100
AcDbEntity
  8
Sichtbare_Kanten_TC_020513_DIN_
  6
Continuous
 62
     7
100
AcDbLine
 10
146.058715199126
 20
159.784662489797
 30
0.0
 11
146.058715199129
 21
157.284662489797
 31
0.0
  0
LINE
  5
367
330
1F
100
AcDbEntity
  8
Sichtbare_Kanten_TC_020513_DIN_
  6
Continuous
 62
     7
100
AcDbLine
 10
146.058715199129
 20
157.284662489797
 30
0.0
 11
141.058715199129
 21
157.284662489797
 31
0.0
  0
LINE
  5
368
330
1F
100
AcDbEntity
  8
Sichtbare_Kanten_TC_020513_DIN_
  6
Continuous
 62
     7
100
AcDbLine
 10
154.558715199125
 20
167.584662489797
 30
0.0
 11
141.058715199128
 21
167.584662489797
 31
0.0
  0
LINE
  5
369
330
1F
100
AcDbEntity
  8
Sichtbare_Kanten_TC_020513_DIN_
  6
Continuous
 62
     7
100
AcDbLine
 10
156.558715199128
 20
170.784662489797
 30
0.0
 11
156.558715199128
 21
186.584662489797
 31
0.0
  0
LINE
  5
36A
330
1F
100
AcDbEntity
  8
Sichtbare_Kanten_TC_020513_DIN_
  6
Continuous
 62
     7
100
AcDbLine
 10
159.558715199129
 20
186.584662489797
 30
0.0
 11
159.558715199128
 21
170.784662489797
 31
0.0
  0
LINE
  5
36B
330
1F
100
AcDbEntity
  8
Sichtbare_Kanten_TC_020513_DIN_
  6
Continuous
 62
     7
100
AcDbLine
 10
159.558715199128
 20
183.584662489797
 30
0.0
 11
156.558715199128
 21
183.584662489797
 31
0.0
  0
LINE
  5
36C
330
1F
100
AcDbEntity
  8
Sichtbare_Kanten_TC_020513_DIN_
  6
Continuous
 62
     7
100
AcDbLine
 10
168.058715199128
 20
163.784662489797
 30
0.0
 11
168.058715199128
 21
167.584662489797
 31
0.0
  0
LINE
  5
36D
330
1F
100
AcDbEntity
  8
Sichtbare_Kanten_TC_020513_DIN_
  6
Continuous
 62
     7
100
AcDbLine
 10
148.058715199128
 20
163.784662489797
 30
0.0
 11
153.558715199128
 21
163.784662489797
 31
0.0
  0
LINE
  5
36E
330
1F
100
AcDbEntity
  8
Sichtbare_Kanten_TC_020513_DIN_
  6
Continuous
 62
     7
100
AcDbLine
 10
162.558715199128
 20
163.784662489797
 30
0.0
 11
168.058715199128
 21
163.784662489797
 31
0.0
  0
LINE
  5
36F
330
1F
100
AcDbEntity
  8
Sichtbare_Kanten_TC_020513_DIN_
  6
Continuous
 62
     7
100
AcDbLine
 10
148.058715199128
 20
167.584662489797
 30
0.0
 11
148.058715199128
 21
163.784662489797
 31
0.0
  0
LINE
  5
370
330
1F
100
AcDbEntity
  8
Sichtbare_Kanten_TC_020513_DIN_
  6
Continuous
 62
     7
100
AcDbLine
 10
161.558715199125
 20
167.584662489797
 30
0.0
 11
175.058715199128
 21
167.584662489797
 31
0.0
  0
LINE
  5
371
330
1F
100
AcDbEntity
  8
Sichtbare_Kanten_TC_020513_DIN_
  6
Continuous
 62
     7
100
AcDbLine
 10
161.558715199125
 20
168.784662489797
 30
0.0
 11
161.558715199125
 21
167.584662489797
 31
0.0
  0
LINE
  5
372
330
1F
100
AcDbEntity
  8
Sichtbare_Kanten_TC_020513_DIN_
  6
Continuous
 62
     7
100
AcDbLine
 10
154.558715199125
 20
168.784662489797
 30
0.0
 11
154.558715199125
 21
167.584662489797
 31
0.0
  0
LINE
  5
373
330
1F
100
AcDbEntity
  8
Sichtbare_Kanten_TC_020513_DIN_
  6
Continuous
 62
     7
100
AcDbLine
 10
147.308715199126
 20
170.484662489797
 30
0.0
 11
147.308715199126
 21
169.784662489797
 31
0.0
  0
LINE
  5
374
330
1F
100
AcDbEntity
  8
Sichtbare_Kanten_TC_020513_DIN_
  6
Continuous
 62
     7
100
AcDbLine
 10
141.808715199126
 20
170.484662489797
 30
0.0
 11
141.808715199126
 21
169.784662489797
 31
0.0
  0
LINE
  5
375
330
1F
100
AcDbEntity
  8
Sichtbare_Kanten_TC_020513_DIN_
  6
Continuous
 62
     7
100
AcDbLine
 10
145.858715199126
 20
167.584662489797
 30
0.0
 11
145.858715199126
 21
163.784662489797
 31
0.0
  0
LINE
  5
376
330
1F
100
AcDbEntity
  8
Sichtbare_Kanten_TC_020513_DIN_
  6
Continuous
 62
     7
100
AcDbLine
 10
143.258715199126
 20
167.584662489797
 30
0.0
 11
143.258715199126
 21
163.784662489797
 31
0.0
  0
LINE
  5
377
330
1F
100
AcDbEntity
  8
Sichtbare_Kanten_TC_020513_DIN_
  6
Continuous
 62
     7
100
AcDbLine
 10
145.858715199126
 20
169.784662489797
 30
0.0
 11
145.858715199126
 21
169.684662489797
 31
0.0
  0
LINE
  5
378
330
1F
100
AcDbEntity
  8
Sichtbare_Kanten_TC_020513_DIN_
  6
Continuous
 62
     7
100
AcDbLine
 10
143.258715199126
 20
169.784662489797
 30
0.0
 11
143.258715199126
 21
169.684662489797
 31
0.0
  0
LINE
  5
379
330
1F
100
AcDbEntity
  8
Sichtbare_Kanten_TC_020513_DIN_
  6
Continuous
 62
     7
100
AcDbLine
 10
147.208715199126
 20
169.684662489797
 30
0.0
 11
147.208715199126
 21
168.784662489797
 31
0.0
  0
LINE
  5
37A
330
1F
100
AcDbEntity
  8
Sichtbare_Kanten_TC_020513_DIN_
  6
Continuous
 62
     7
100
AcDbLine
 10
141.908715199126
 20
169.684662489797
 30
0.0
 11
141.908715199126
 21
168.784662489797
 31
0.0
  0
LINE
  5
37B
330
1F
100
AcDbEntity
  8
Sichtbare_Kanten_TC_020513_DIN_
  6
Continuous
 62
     7
100
AcDbLine
 10
143.058715199126
 20
163.784662489797
 30
0.0
 11
143.058715199126
 21
159.784662489797
 31
0.0
  0
LINE
  5
37C
330
1F
100
AcDbEntity
  8
Sichtbare_Kanten_TC_020513_DIN_
  6
Continuous
 62
     7
100
AcDbLine
 10
143.558715199126
 20
159.284662489797
 30
0.0
 11
143.058715199126
 21
159.784662489797
 31
0.0
  0
LINE
  5
37D
330
1F
100
AcDbEntity
  8
Sichtbare_Kanten_TC_020513_DIN_
  6
Continuous
 62
     7
100
AcDbLine
 10
145.558715199126
 20
159.284662489797
 30
0.0
 11
146.058715199126
 21
159.784662489797
 31
0.0
  0
LINE
  5
37E
330
1F
100
AcDbEntity
  8
Sichtbare_Kanten_TC_020513_DIN_
  6
Continuous
 62
     7
100
AcDbLine
 10
170.258715199126
 20
163.784662489797
 30
0.0
 11
170.258715199126
 21
167.584662489797
 31
0.0
  0
LINE
  5
37F
330
1F
100
AcDbEntity
  8
Sichtbare_Kanten_TC_020513_DIN_
  6
Continuous
 62
     7
100
AcDbLine
 10
172.858715199126
 20
163.784662489797
 30
0.0
 11
172.858715199126
 21
167.584662489797
 31
0.0
  0
LINE
  5
380
330
1F
100
AcDbEntity
  8
Sichtbare_Kanten_TC_020513_DIN_
  6
Continuous
 62
     7
100
AcDbLine
 10
168.808715199126
 20
169.784662489797
 30
0.0
 11
168.808715199126
 21
170.484662489797
 31
0.0
  0
LINE
  5
381
330
1F
100
AcDbEntity
  8
Sichtbare_Kanten_TC_020513_DIN_
  6
Continuous
 62
     7
100
AcDbLine
 10
174.308715199126
 20
169.784662489797
 30
0.0
 11
174.308715199126
 21
170.484662489797
 31
0.0
  0
LINE
  5
382
330
1F
100
AcDbEntity
  8
Sichtbare_Kanten_TC_020513_DIN_
  6
Continuous
 62
     7
100
AcDbLine
 10
170.258715199126
 20
169.684662489797
 30
0.0
 11
170.258715199126
 21
169.784662489797
 31
0.0
  0
LINE
  5
383
330
1F
100
AcDbEntity
  8
Sichtbare_Kanten_TC_020513_DIN_
  6
Continuous
 62
     7
100
AcDbLine
 10
172.858715199126
 20
169.684662489797
 30
0.0
 11
172.858715199126
 21
169.784662489797
 31
0.0
  0
LINE
  5
384
330
1F
100
AcDbEntity
  8
Sichtbare_Kanten_TC_020513_DIN_
  6
Continuous
 62
     7
100
AcDbLine
 10
168.908715199126
 20
168.784662489797
 30
0.0
 11
168.908715199126
 21
169.684662489797
 31
0.0
  0
LINE
  5
385
330
1F
100
AcDbEntity
  8
Sichtbare_Kanten_TC_020513_DIN_
  6
Continuous
 62
     7
100
AcDbLine
 10
174.208715199126
 20
168.784662489797
 30
0.0
 11
174.208715199126
 21
169.684662489797
 31
0.0
  0
LINE
  5
386
330
1F
100
AcDbEntity
  8
Sichtbare_Kanten_TC_020513_DIN_
  6
Continuous
 62
     7
100
AcDbLine
 10
173.058715199126
 20
159.784662489797
 30
0.0
 11
173.058715199126
 21
163.784662489797
 31
0.0
  0
LINE
  5
387
330
1F
100
AcDbEntity
  8
Sichtbare_Kanten_TC_020513_DIN_
  6
Continuous
 62
     7
100
AcDbLine
 10
170.558715199126
 20
159.284662489797
 30
0.0
 11
170.058715199126
 21
159.784662489797
 31
0.0
  0
LINE
  5
388
330
1F
100
AcDbEntity
  8
Sichtbare_Kanten_TC_020513_DIN_
  6
Continuous
 62
     7
100
AcDbLine
 10
172.558715199126
 20
159.284662489797
 30
0.0
 11
173.058715199126
 21
159.784662489797
 31
0.0
  0
LINE
  5
389
330
1F
100
AcDbEntity
  8
Gewinde_TC_020513_DIN_
  6
Continuous
 62
     7
100
AcDbLine
 10
145.757715199126
 20
159.483662489797
 30
0.0
 11
145.757715199126
 21
163.784662489797
 31
0.0
  0
LINE
  5
38A
330
1F
100
AcDbEntity
  8
Gewinde_TC_020513_DIN_
  6
Continuous
 62
     7
100
AcDbLine
 10
143.359715199126
 20
163.784662489797
 30
0.0
 11
143.359715199126
 21
159.483662489797
 31
0.0
  0
LINE
  5
38B
330
1F
100
AcDbEntity
  8
Sichtbare_Kanten_TC_020513_DIN_
  6
Continuous
 62
     7
100
AcDbLine
 10
143.058715199126
 20
163.784662489797
 30
0.0
 11
146.058715199126
 21
163.784662489797
 31
0.0
  0
LINE
  5
38C
330
1F
100
AcDbEntity
  8
Gewinde_TC_020513_DIN_
  6
Continuous
 62
     7
100
AcDbLine
 10
170.359715199126
 20
163.784662489797
 30
0.0
 11
170.359715199126
 21
159.483662489797
 31
0.0
  0
LINE
  5
38D
330
1F
100
AcDbEntity
  8
Gewinde_TC_020513_DIN_
  6
Continuous
 62
     7
100
AcDbLine
 10
172.757715199126
 20
159.483662489797
 30
0.0
 11
172.757715199126
 21
163.784662489797
 31
0.0
  0
LINE
  5
38E
330
1F
100
AcDbEntity
  8
Sichtbare_Kanten_TC_020513_DIN_
  6
Continuous
 62
     7
100
AcDbLine
 10
173.058715199126
 20
163.784662489797
 30
0.0
 11
170.058715199126
 21
163.784662489797
 31
0.0
  0
LINE
  5
38F
330
1F
100
AcDbEntity
  8
Sichtbare_Kanten_TC_020513_DIN_
  6
Continuous
 62
     7
100
AcDbLine
 10
155.808715199127
 20
160.284662489797
 30
0.0
 11
157.558715199127
 21
160.284662489797
 31
0.0
  0
LINE
  5
390
330
1F
100
AcDbEntity
  8
Sichtbare_Kanten_TC_020513_DIN_
  6
Continuous
 62
     7
100
AcDbLine
 10
155.808715199127
 20
161.284662489797
 30
0.0
 11
155.808715199127
 21
160.284662489797
 31
0.0
  0
LINE
  5
391
330
1F
100
AcDbEntity
  8
Sichtbare_Kanten_TC_020513_DIN_
  6
Continuous
 62
     7
100
AcDbLine
 10
157.558715199127
 20
161.284662489797
 30
0.0
 11
155.808715199127
 21
161.284662489797
 31
0.0
  0
LINE
  5
392
330
1F
100
AcDbEntity
  8
Sichtbare_Kanten_TC_020513_DIN_
  6
Continuous
 62
     7
100
AcDbLine
 10
157.558715199127
 20
164.248764104935
 30
0.0
 11
157.558715199127
 21
161.284662489797
 31
0.0
  0
LINE
  5
393
330
1F
100
AcDbEntity
  8
Sichtbare_Kanten_TC_020513_DIN_
  6
Continuous
 62
     7
100
AcDbLine
 10
158.558715199127
 20
161.284662489797
 30
0.0
 11
158.558715199127
 21
164.248764104935
 31
0.0
  0
LINE
  5
394
330
1F
100
AcDbEntity
  8
Sichtbare_Kanten_TC_020513_DIN_
  6
Continuous
 62
     7
100
AcDbLine
 10
160.308715199127
 20
161.284662489797
 30
0.0
 11
158.558715199127
 21
161.284662489797
 31
0.0
  0
LINE
  5
395
330
1F
100
AcDbEntity
  8
Sichtbare_Kanten_TC_020513_DIN_
  6
Continuous
 62
     7
100
AcDbLine
 10
160.308715199127
 20
160.284662489797
 30
0.0
 11
160.308715199127
 21
161.284662489797
 31
0.0
  0
LINE
  5
396
330
1F
100
AcDbEntity
  8
Sichtbare_Kanten_TC_020513_DIN_
  6
Continuous
 62
     7
100
AcDbLine
 10
158.558715199127
 20
160.284662489797
 30
0.0
 11
160.308715199127
 21
160.284662489797
 31
0.0
  0
LINE
  5
397
330
1F
100
AcDbEntity
  8
Sichtbare_Kanten_TC_020513_DIN_
  6
Continuous
 62
     7
100
AcDbLine
 10
158.558715199127
 20
157.320560874659
 30
0.0
 11
158.558715199127
 21
160.284662489797
 31
0.0
  0
LINE
  5
398
330
1F
100
AcDbEntity
  8
Sichtbare_Kanten_TC_020513_DIN_
  6
Continuous
 62
     7
100
AcDbLine
 10
157.558715199127
 20
160.284662489797
 30
0.0
 11
157.558715199127
 21
157.320560874659
 31
0.0
  0
LINE
  5
399
330
1F
100
AcDbEntity
  8
Sichtbare_Kanten_TC_020513_DIN_
  6
Continuous
 62
     7
100
AcDbLine
 10
146.058715199128
 20
169.784662489797
 30
0.0
 11
146.058715199128
 21
169.684662489797
 31
0.0
  0
LINE
  5
39A
330
1F
100
AcDbEntity
  8
Sichtbare_Kanten_TC_020513_DIN_
  6
Continuous
 62
     7
100
AcDbLine
 10
144.058715199131
 20
184.584662489797
 30
0.0
 11
144.05871519913
 21
171.684662489797
 31
0.0
  0
LINE
  5
39B
330
1F
100
AcDbEntity
  8
Sichtbare_Kanten_TC_020513_DIN_
  6
Continuous
 62
     7
100
AcDbLine
 10
172.05871519913
 20
171.684662489797
 30
0.0
 11
172.05871519913
 21
184.584662489797
 31
0.0
  0
LINE
  5
39C
330
1F
100
AcDbEntity
  8
Sichtbare_Kanten_TC_020513_DIN_
  6
Continuous
 62
     7
100
AcDbLine
 10
168.058715199129
 20
186.584662489797
 30
0.0
 11
148.058715199129
 21
186.584662489797
 31
0.0
  0
LINE
  5
39D
330
1F
100
AcDbEntity
  8
Sichtbare_Kanten_TC_020513_DIN_
  6
Continuous
 62
     7
100
AcDbLine
 10
148.058715199129
 20
170.784662489797
 30
0.0
 11
148.058715199129
 21
186.584662489797
 31
0.0
  0
LINE
  5
39E
330
1F
100
AcDbEntity
  8
Sichtbare_Kanten_TC_020513_DIN_
  6
Continuous
 62
     7
100
AcDbLine
 10
153.058715199128
 20
170.784662489797
 30
0.0
 11
153.058715199128
 21
186.584662489797
 31
0.0
  0
LINE
  5
39F
330
1F
100
AcDbEntity
  8
Sichtbare_Kanten_TC_020513_DIN_
  6
Continuous
 62
     7
100
AcDbLine
 10
168.058715199129
 20
170.784662489797
 30
0.0
 11
168.058715199129
 21
186.584662489797
 31
0.0
  0
LINE
  5
820
330
1F
100
AcDbEntity
  8
Sichtbare_Kanten_TC_020513_DIN_
  6
Continuous
 62
     7
100
AcDbLine
 10
107.5832478596257
 20
239.086965018681
 30
0.0
 11
103.777781560407
 21
239.086965018681
 31
0.0
  0
LINE
  5
821
330
1F
100
AcDbEntity
  8
Sichtbare_Kanten_TC_020513_DIN_
  6
Continuous
 62
     7
100
AcDbLine
 10
105.3918791921105
 20
232.086965018681
 30
0.0
 11
103.777781560407
 21
232.086965018681
 31
0.0
  0
LINE
  5
822
330
1F
100
AcDbEntity
  8
1
  6
Continuous
 62
     7
100
AcDbLine
 10
107.5832478596257
 20
239.086965018681
 30
0.0
 11
112.577781560407
 21
239.086965018681
 31
0.0
  0
LINE
  5
823
330
1F
100
AcDbEntity
  8
1
  6
Continuous
 62
     7
100
AcDbLine
 10
105.3918791921105
 20
232.086965018681
 30
0.0
 11
112.577781560407
 21
232.086965018681
 31
0.0
  0
LINE
  5
824
330
1F
100
AcDbEntity
  8
Gewinde_TC_020513_DIN_
  6
Continuous
 62
     7
100
AcDbLine
 10
108.32878156033
 20
163.784662489797
 30
0.0
 11
108.32878156033
 21
159.483662489797
 31
0.0
  0
LINE
  5
825
330
1F
100
AcDbEntity
  8
Gewinde_TC_020513_DIN_
  6
Continuous
 62
     7
100
AcDbLine
 10
108.32878156033
 20
163.784662489797
 30
0.0
 11
108.32878156033
 21
159.483662489797
 31
0.0
  0
LINE
  5
826
330
1F
100
AcDbEntity
  8
Sichtbare_Kanten_TC_020513_DIN_
  6
Continuous
 62
     7
100
AcDbLine
 10
108.02778156033
 20
163.784662489797
 30
0.0
 11
108.02778156033
 21
159.784662489797
 31
0.0
  0
LINE
  5
827
330
1F
100
AcDbEntity
  8
Sichtbare_Kanten_TC_020513_DIN_
  6
Continuous
 62
     7
100
AcDbLine
 10
103.77778156033
 20
163.784662489797
 30
0.0
 11
103.290255467835
 21
163.784662489797
 31
0.0
  0
LINE
  5
828
330
1F
100
AcDbEntity
  8
Sichtbare_Kanten_TC_020513_DIN_
  6
Continuous
 62
     7
100
AcDbLine
 10
107.52778156033
 20
159.784662489797
 30
0.0
 11
107.52778156033
 21
156.784662489797
 31
0.0
  0
LINE
  5
829
330
1F
100
AcDbEntity
  8
1
  6
DOT_CENTER
 62
     2
100
AcDbLine
 10
65.5277815602515
 20
117.9839825342495
 30
0.0
 11
65.5277815602515
 21
109.8839825342506
 31
0.0
  0
LINE
  5
82A
330
1F
100
AcDbEntity
  8
1
  6
DOT_CENTER
 62
     2
100
AcDbLine
 10
61.47778156025206
 20
113.93398253425
 30
0.0
 11
69.57778156025094
 21
113.93398253425
 31
0.0
  0
LINE
  5
82B
330
1F
100
AcDbEntity
  8
1
  6
DOT_CENTER
 62
     2
100
AcDbLine
 10
65.5277815602515
 20
90.98398253424914
 30
0.0
 11
65.5277815602515
 21
82.88398253425025
 31
0.0
  0
LINE
  5
82C
330
1F
100
AcDbEntity
  8
1
  6
DOT_CENTER
 62
     2
100
AcDbLine
 10
61.47778156025206
 20
86.9339825342497
 30
0.0
 11
69.57778156025094
 21
86.9339825342497
 31
0.0
  0
LINE
  5
82D
330
1F
100
AcDbEntity
  8
1
  6
DOT_CENTER
 62
     2
100
AcDbLine
 10
109.527781560252
 20
117.9839825342495
 30
0.0
 11
109.527781560252
 21
109.8839825342506
 31
0.0
  0
LINE
  5
82E
330
1F
100
AcDbEntity
  8
1
  6
DOT_CENTER
 62
     2
100
AcDbLine
 10
105.4777815602526
 20
113.93398253425
 30
0.0
 11
113.5777815602514
 21
113.93398253425
 31
0.0
  0
LINE
  5
82F
330
1F
100
AcDbEntity
  8
1
  6
DOT_CENTER
 62
     2
100
AcDbLine
 10
109.527781560252
 20
90.98398253424914
 30
0.0
 11
109.527781560252
 21
82.88398253425025
 31
0.0
  0
LINE
  5
830
330
1F
100
AcDbEntity
  8
1
  6
DOT_CENTER
 62
     2
100
AcDbLine
 10
105.4777815602526
 20
86.9339825342497
 30
0.0
 11
113.5777815602514
 21
86.9339825342497
 31
0.0
  0
LINE
  5
831
330
1F
100
AcDbEntity
  8
1
  6
DOT_CENTER
 62
     2
100
AcDbLine
 10
61.47778156025206
 20
249.086965018678
 30
0.0
 11
69.57778156025094
 21
249.086965018678
 31
0.0
  0
LINE
  5
832
330
1F
100
AcDbEntity
  8
1
  6
DOT_CENTER
 62
     2
100
AcDbLine
 10
65.5277815602515
 20
253.1369650186774
 30
0.0
 11
65.5277815602515
 21
245.0369650186785
 31
0.0
  0
LINE
  5
833
330
1F
100
AcDbEntity
  8
1
  6
DOT_CENTER
 62
     2
100
AcDbLine
 10
61.47778156025206
 20
222.0869650186777
 30
0.0
 11
69.57778156025094
 21
222.0869650186777
 31
0.0
  0
LINE
  5
834
330
1F
100
AcDbEntity
  8
1
  6
DOT_CENTER
 62
     2
100
AcDbLine
 10
65.5277815602515
 20
226.1369650186771
 30
0.0
 11
65.5277815602515
 21
218.0369650186783
 31
0.0
  0
LINE
  5
835
330
1F
100
AcDbEntity
  8
1
  6
DOT_CENTER
 62
     2
100
AcDbLine
 10
109.527781560252
 20
226.1369650186771
 30
0.0
 11
109.527781560252
 21
218.0369650186783
 31
0.0
  0
LINE
  5
836
330
1F
100
AcDbEntity
  8
1
  6
DOT_CENTER
 62
     2
100
AcDbLine
 10
105.4777815602526
 20
222.0869650186777
 30
0.0
 11
113.5777815602514
 21
222.0869650186777
 31
0.0
  0
LINE
  5
837
330
1F
100
AcDbEntity
  8
1
  6
DOT_CENTER
 62
     2
100
AcDbLine
 10
105.4777815602526
 20
249.086965018678
 30
0.0
 11
113.5777815602514
 21
249.086965018678
 31
0.0
  0
LINE
  5
838
330
1F
100
AcDbEntity
  8
1
  6
DOT_CENTER
 62
     2
100
AcDbLine
 10
109.527781560252
 20
253.1369650186774
 30
0.0
 11
109.527781560252
 21
245.0369650186785
 31
0.0
  0
ARC
  5
839
330
1F
100
AcDbEntity
  8
0
  6
Continuous
 62
     7
100
AcDbCircle
 10
106.477781560249
 20
105.433982534257
 30
0.0
 40
1.0
100
AcDbArc
 50
90.0
 51
180.0
  0
ARC
  5
83A
330
1F
100
AcDbEntity
  8
0
  6
Continuous
 62
     7
100
AcDbCircle
 10
107.498023093683
 20
100.846256353232
 30
0.0
 40
0.0779329363770103
100
AcDbArc
 50
90.0
 51
239.9999999996761
  0
ARC
  5
83B
330
1F
100
AcDbEntity
  8
0
  6
Continuous
 62
     7
100
AcDbCircle
 10
107.498023093683
 20
100.021708715282
 30
0.0
 40
0.0779329363772542
100
AcDbArc
 50
120.0000000003187
 51
270.0
  0
ARC
  5
83C
330
1F
100
AcDbEntity
  8
0
  6
Continuous
 62
     7
100
AcDbCircle
 10
107.962135531992
 20
99.2574863214118
 30
0.0
 40
0.0980413510705915
100
AcDbArc
 50
90.0
 51
270.0
  0
ARC
  5
83D
330
1F
100
AcDbEntity
  8
0
  6
Continuous
 62
     7
100
AcDbCircle
 10
108.477781560249
 20
97.9830032097921
 30
0.0
 40
0.1490206755355676
100
AcDbArc
 50
210.1980970263465
 51
329.8019029809116
  0
ARC
  5
83E
330
1F
100
AcDbEntity
  8
0
  6
Continuous
 62
     7
100
AcDbCircle
 10
108.477781560249
 20
97.9830032097921
 30
0.0
 40
0.3490206755355325
100
AcDbArc
 50
210.2989889601294
 51
329.7010110452223
  0
ARC
  5
83F
330
1F
100
AcDbEntity
  8
0
  6
Continuous
 62
     7
100
AcDbCircle
 10
109.163051712708
 20
99.7476930767641
 30
0.0
 40
0.1960827021407994
100
AcDbArc
 50
270.0
 51
330.01836063117
  0
ARC
  5
840
330
1F
100
AcDbEntity
  8
0
  6
Continuous
 62
     7
100
AcDbCircle
 10
108.993427588505
 20
99.2574863214118
 30
0.0
 40
0.0980413510701084
100
AcDbArc
 50
270.0
 51
90.0
  0
ARC
  5
841
330
1F
100
AcDbEntity
  8
0
  6
Continuous
 62
     7
100
AcDbCircle
 10
107.735886260291
 20
99.6496517256936
 30
0.0
 40
0.0980413510704921
100
AcDbArc
 50
90.0
 51
270.0
  0
ARC
  5
842
330
1F
100
AcDbEntity
  8
0
  6
Continuous
 62
     7
100
AcDbCircle
 10
107.962135531992
 20
101.610478747102
 30
0.0
 40
0.0980413510702949
100
AcDbArc
 50
330.0183606313493
 51
150.0183606310558
  0
ARC
  5
843
330
1F
100
AcDbEntity
  8
0
  6
Continuous
 62
     7
100
AcDbCircle
 10
107.735886260291
 20
101.21831334282
 30
0.0
 40
0.0980413510699446
100
AcDbArc
 50
150.0183606305409
 51
270.0
  0
ARC
  5
844
330
1F
100
AcDbEntity
  8
0
  6
Continuous
 62
     7
100
AcDbCircle
 10
108.350360475235
 20
100.433982534257
 30
0.0
 40
0.0490206755347638
100
AcDbArc
 50
299.9999999995007
 51
60.00000000050759
  0
ARC
  5
845
330
1F
100
AcDbEntity
  8
0
  6
Continuous
 62
     7
100
AcDbCircle
 10
108.477781560249
 20
102.884961858722
 30
0.0
 40
0.1490206755347054
100
AcDbArc
 50
30.19809701048225
 51
149.8019029826531
  0
ARC
  5
846
330
1F
100
AcDbEntity
  8
0
  6
Continuous
 62
     7
100
AcDbCircle
 10
108.477781560249
 20
102.884961858722
 30
0.0
 40
0.3490206755349919
100
AcDbArc
 50
30.29898894826024
 51
149.7010110466699
  0
ARC
  5
847
330
1F
100
AcDbEntity
  8
0
  6
Continuous
 62
     7
100
AcDbCircle
 10
110.477781560249
 20
105.433982534257
 30
0.0
 40
1.0
100
AcDbArc
 50
0.0
 51
90.0
  0
ARC
  5
848
330
1F
100
AcDbEntity
  8
0
  6
Continuous
 62
     7
100
AcDbCircle
 10
109.445926131907
 20
100.826147938539
 30
0.0
 40
0.0980413510709894
100
AcDbArc
 50
270.0
 51
90.0
  0
ARC
  5
849
330
1F
100
AcDbEntity
  8
0
  6
Continuous
 62
     7
100
AcDbCircle
 10
109.219676860206
 20
101.21831334282
 30
0.0
 40
0.0980413510699947
100
AcDbArc
 50
270.0
 51
29.98163936916447
  0
ARC
  5
84A
330
1F
100
AcDbEntity
  8
0
  6
Continuous
 62
     7
100
AcDbCircle
 10
108.993427588505
 20
101.610478747102
 30
0.0
 40
0.0980413510703143
100
AcDbArc
 50
29.98163936865372
 51
209.9816393686465
  0
ARC
  5
84B
330
1F
100
AcDbEntity
  8
0
  6
Continuous
 62
     7
100
AcDbCircle
 10
108.993176270216
 20
100.041817129975
 30
0.0
 40
0.0980413510701084
100
AcDbArc
 50
270.0
 51
90.0
  0
ARC
  5
84C
330
1F
100
AcDbEntity
  8
0
  6
Continuous
 62
     7
100
AcDbCircle
 10
109.615613085682
 20
100.335941183187
 30
0.0
 40
0.0980413510708185
100
AcDbArc
 50
330.0183606308356
 51
150.0183606313463
  0
ARC
  5
84D
330
1F
100
AcDbEntity
  8
0
  6
Continuous
 62
     7
100
AcDbCircle
 10
108.477781560249
 20
101.610478747102
 30
0.0
 40
0.0980413510699947
100
AcDbArc
 50
0.0
 51
180.0
  0
ARC
  5
84E
330
1F
100
AcDbEntity
  8
0
  6
Continuous
 62
     7
100
AcDbCircle
 10
110.477781560248
 20
95.4339825342568
 30
0.0
 40
1.0
100
AcDbArc
 50
270.0
 51
0.0
  0
ARC
  5
84F
330
1F
100
AcDbEntity
  8
0
  6
Continuous
 62
     7
100
AcDbCircle
 10
106.477781560248
 20
95.4339825342568
 30
0.0
 40
1.0
100
AcDbArc
 50
180.0
 51
270.0
  0
ARC
  5
850
330
1F
100
AcDbEntity
  8
0
  6
Continuous
 62
     7
100
AcDbCircle
 10
68.52778156024769
 20
95.4339825342574
 30
0.0
 40
1.0
100
AcDbArc
 50
270.0
 51
0.0
  0
ARC
  5
851
330
1F
100
AcDbEntity
  8
0
  6
Continuous
 62
     7
100
AcDbCircle
 10
64.52778156024769
 20
95.4339825342575
 30
0.0
 40
1.0
100
AcDbArc
 50
180.0
 51
270.0
  0
ARC
  5
852
330
1F
100
AcDbEntity
  8
0
  6
Continuous
 62
     7
100
AcDbCircle
 10
68.52778156024786
 20
105.433982534257
 30
0.0
 40
1.0
100
AcDbArc
 50
0.0
 51
90.0
  0
ARC
  5
853
330
1F
100
AcDbEntity
  8
0
  6
Continuous
 62
     7
100
AcDbCircle
 10
64.52778156024786
 20
105.433982534258
 30
0.0
 40
1.0
100
AcDbArc
 50
90.0
 51
180.0
  0
ARC
  5
854
330
1F
100
AcDbEntity
  8
Sichtbare_Kanten_TC_020513_DIN_
  6
Continuous
 62
     7
100
AcDbCircle
 10
95.9436839286258
 20
160.784662489797
 30
0.0
 40
24.98312910030138
100
AcDbArc
 50
170.8597153870045
 51
182.2939916709775
  0
ARC
  5
855
330
1F
100
AcDbEntity
  8
Sichtbare_Kanten_TC_020513_DIN_
  6
Continuous
 62
     7
100
AcDbCircle
 10
95.9436839286258
 20
160.784662489797
 30
0.0
 40
25.89185972463133
100
AcDbArc
 50
171.1831175849956
 51
182.2134382820182
  0
ARC
  5
856
330
1F
100
AcDbEntity
  8
Sichtbare_Kanten_TC_020513_DIN_
  6
Continuous
 62
     7
100
AcDbCircle
 10
73.2777815603296
 20
155.583662489797
 30
0.0
 40
2.0
100
AcDbArc
 50
180.0
 51
247.9756871629588
  0
ARC
  5
857
330
1F
100
AcDbEntity
  8
Sichtbare_Kanten_TC_020513_DIN_
  6
Continuous
 62
     7
100
AcDbCircle
 10
72.0277815603295
 20
183.284662489797
 30
0.0
 40
0.5
100
AcDbArc
 50
89.9999999999886
 51
180.0
  0
ARC
  5
858
330
1F
100
AcDbEntity
  8
Sichtbare_Kanten_TC_020513_DIN_
  6
Continuous
 62
     7
100
AcDbCircle
 10
62.9777815603296
 20
171.484662489797
 30
0.0
 40
0.2000000000000171
100
AcDbArc
 50
90.0
 51
180.0
  0
ARC
  5
859
330
1F
100
AcDbEntity
  8
Sichtbare_Kanten_TC_020513_DIN_
  6
Continuous
 62
     7
100
AcDbCircle
 10
68.0777815603296
 20
171.484662489797
 30
0.0
 40
0.2000000000000028
100
AcDbArc
 50
0.0
 51
90.0
  0
ARC
  5
85A
330
1F
100
AcDbEntity
  8
Sichtbare_Kanten_TC_020513_DIN_
  6
Continuous
 62
     7
100
AcDbCircle
 10
101.77778156033
 20
155.583662489797
 30
0.0
 40
2.000000000000087
100
AcDbArc
 50
292.0243128370412
 51
0.0
  0
ARC
  5
85B
330
1F
100
AcDbEntity
  8
Sichtbare_Kanten_TC_020513_DIN_
  6
Continuous
 62
     7
100
AcDbCircle
 10
95.9436839286258
 20
160.784662489797
 30
0.0
 40
26.27999999999978
100
AcDbArc
 50
188.7548472515182
 51
189.8595088439888
  0
ARC
  5
85C
330
1F
100
AcDbEntity
  8
Sichtbare_Kanten_TC_020513_DIN_
  6
Continuous
 62
     7
100
AcDbCircle
 10
95.9436839286258
 20
160.784662489797
 30
0.0
 40
26.27999999999981
100
AcDbArc
 50
170.1404911560112
 51
182.1807311757032
  0
ARC
  5
85D
330
1F
100
AcDbEntity
  8
Sichtbare_Kanten_TC_020513_DIN_
  6
Continuous
 62
     7
100
AcDbCircle
 10
87.1636839286261
 20
160.784662489797
 30
0.0
 40
19.99374902313224
100
AcDbArc
 50
170.02262789664
 51
178.567008289166
  0
ARC
  5
85E
330
1F
100
AcDbEntity
  8
Sichtbare_Kanten_TC_020513_DIN_
  6
Continuous
 62
     7
100
AcDbCircle
 10
87.1636839286261
 20
160.784662489797
 30
0.0
 40
19.87303449400728
100
AcDbArc
 50
178.5583020532681
 51
181.4416979467319
  0
ARC
  5
85F
330
1F
100
AcDbEntity
  8
Sichtbare_Kanten_TC_020513_DIN_
  6
Continuous
 62
     7
100
AcDbCircle
 10
87.1636839286261
 20
160.784662489797
 30
0.0
 40
19.99374902313222
100
AcDbArc
 50
181.432991710834
 51
189.97737210336
  0
ARC
  5
860
330
1F
100
AcDbEntity
  8
Sichtbare_Kanten_TC_020513_DIN_
  6
Continuous
 62
     7
100
AcDbCircle
 10
112.07778156033
 20
171.484662489797
 30
0.0
 40
0.2000000000000028
100
AcDbArc
 50
0.0
 51
90.0
  0
ARC
  5
861
330
1F
100
AcDbEntity
  8
Sichtbare_Kanten_TC_020513_DIN_
  6
Continuous
 62
     7
100
AcDbCircle
 10
106.97778156033
 20
171.484662489797
 30
0.0
 40
0.2000000000000171
100
AcDbArc
 50
90.0
 51
180.0
  0
ARC
  5
862
330
1F
100
AcDbEntity
  8
Sichtbare_Kanten_TC_020513_DIN_
  6
Continuous
 62
     7
100
AcDbCircle
 10
103.02778156033
 20
183.284662489797
 30
0.0
 40
0.5
100
AcDbArc
 50
0.0
 51
90.0
  0
ARC
  5
863
330
1F
100
AcDbEntity
  8
Sichtbare_Kanten_TC_020513_DIN_
  6
Continuous
 62
     7
100
AcDbCircle
 10
65.9777815604073
 20
222.086965018681
 30
0.0
 40
3.499999999999993
100
AcDbArc
 50
180.0
 51
270.0
  0
ARC
  5
864
330
1F
100
AcDbEntity
  8
Sichtbare_Kanten_TC_020513_DIN_
  6
Continuous
 62
     7
100
AcDbCircle
 10
65.9777815604073
 20
249.086965018681
 30
0.0
 40
3.5
100
AcDbArc
 50
90.0
 51
180.0
  0
ARC
  5
865
330
1F
100
AcDbEntity
  8
Gewinde_TC_020513_DIN_
  6
Continuous
 62
     7
100
AcDbCircle
 10
65.5277815604073
 20
222.086965018678
 30
0.0
 40
1.199000000000124
100
AcDbArc
 50
169.9999999999838
 51
79.99999999995404
  0
ARC
  5
866
330
1F
100
AcDbEntity
  8
Gewinde_TC_020513_DIN_
  6
Continuous
 62
     7
100
AcDbCircle
 10
65.5277815604073
 20
249.086965018678
 30
0.0
 40
1.199000000000525
100
AcDbArc
 50
100.0000000000466
 51
10.00000000001716
  0
ARC
  5
867
330
1F
100
AcDbEntity
  8
Sichtbare_Kanten_TC_020513_DIN_
  6
Continuous
 62
     7
100
AcDbCircle
 10
95.9436839287037
 20
235.586965018677
 30
0.0
 40
24.98312910030148
100
AcDbArc
 50
170.8597153870046
 51
189.1402846129955
  0
ARC
  5
868
330
1F
100
AcDbEntity
  8
Sichtbare_Kanten_TC_020513_DIN_
  6
Continuous
 62
     7
100
AcDbCircle
 10
95.9436839287037
 20
235.586965018677
 30
0.0
 40
25.89185972463153
100
AcDbArc
 50
171.1831175849957
 51
188.8168824150044
  0
ARC
  5
869
330
1F
100
AcDbEntity
  8
Sichtbare_Kanten_TC_020513_DIN_
  6
Continuous
 62
     7
100
AcDbCircle
 10
95.9436839287037
 20
235.586965018677
 30
0.0
 40
26.28000000000024
100
AcDbArc
 50
170.140491156007
 51
189.8595088439844
  0
ARC
  5
86A
330
1F
100
AcDbEntity
  8
Sichtbare_Kanten_TC_020513_DIN_
  6
Continuous
 62
     7
100
AcDbCircle
 10
87.1636839287038
 20
235.586965018679
 30
0.0
 40
20.00000000000034
100
AcDbArc
 50
169.9213418922067
 51
173.5405502226449
  0
ARC
  5
86B
330
1F
100
AcDbEntity
  8
Sichtbare_Kanten_TC_020513_DIN_
  6
Continuous
 62
     7
100
AcDbCircle
 10
87.1636839287038
 20
235.586965018679
 30
0.0
 40
20.0
100
AcDbArc
 50
186.4594497773551
 51
190.078658107782
  0
ARC
  5
86C
330
1F
100
AcDbEntity
  8
Sichtbare_Kanten_TC_020513_DIN_
  6
Continuous
 62
     7
100
AcDbCircle
 10
87.1636839287038
 20
235.586965018679
 30
0.0
 40
19.99374902313226
100
AcDbArc
 50
181.4329917108368
 51
186.4614779059612
  0
ARC
  5
86D
330
1F
100
AcDbEntity
  8
Sichtbare_Kanten_TC_020513_DIN_
  6
Continuous
 62
     7
100
AcDbCircle
 10
87.1636839287038
 20
235.586965018679
 30
0.0
 40
19.99374902313208
100
AcDbArc
 50
173.5385220940445
 51
178.5670082891688
  0
ARC
  5
86E
330
1F
100
AcDbEntity
  8
Gewinde_TC_020513_DIN_
  6
Continuous
 62
     7
100
AcDbCircle
 10
109.527781560407
 20
222.086965018678
 30
0.0
 40
1.199000000000404
100
AcDbArc
 50
100.0000000000139
 51
10.00000000001374
  0
ARC
  5
86F
330
1F
100
AcDbEntity
  8
Sichtbare_Kanten_TC_020513_DIN_
  6
Continuous
 62
     7
100
AcDbCircle
 10
109.077781560407
 20
249.086965018681
 30
0.0
 40
3.5
100
AcDbArc
 50
0.0
 51
90.0
  0
ARC
  5
870
330
1F
100
AcDbEntity
  8
Sichtbare_Kanten_TC_020513_DIN_
  6
Continuous
 62
     7
100
AcDbCircle
 10
109.077781560407
 20
222.086965018681
 30
0.0
 40
3.5
100
AcDbArc
 50
270.0
 51
0.0
  0
ARC
  5
871
330
1F
100
AcDbEntity
  8
Gewinde_TC_020513_DIN_
  6
Continuous
 62
     7
100
AcDbCircle
 10
109.527781560407
 20
249.086965018678
 30
0.0
 40
1.198999999999439
100
AcDbArc
 50
169.999999999978
 51
79.99999999994
  0
ARC
  5
872
330
1F
100
AcDbEntity
  8
Sichtbare_Kanten_TC_020513_DIN_
  6
Continuous
 62
     7
100
AcDbCircle
 10
69.5277815602515
 20
89.4339825342499
 30
0.0
 40
1.0
100
AcDbArc
 50
180.0
 51
270.0
  0
ARC
  5
873
330
1F
100
AcDbEntity
  8
Sichtbare_Kanten_TC_020513_DIN_
  6
Continuous
 62
     7
100
AcDbCircle
 10
105.527781560252
 20
89.4339825342499
 30
0.0
 40
1.0
100
AcDbArc
 50
270.0
 51
0.0
  0
ARC
  5
874
330
1F
100
AcDbEntity
  8
Sichtbare_Kanten_TC_020513_DIN_
  6
Continuous
 62
     7
100
AcDbCircle
 10
105.527781560252
 20
111.43398253425
 30
0.0
 40
1.0
100
AcDbArc
 50
0.0
 51
90.0
  0
ARC
  5
875
330
1F
100
AcDbEntity
  8
Sichtbare_Kanten_TC_020513_DIN_
  6
Continuous
 62
     7
100
AcDbCircle
 10
69.5277815602515
 20
111.43398253425
 30
0.0
 40
1.0
100
AcDbArc
 50
90.0
 51
180.0
  0
ARC
  5
876
330
1F
100
AcDbEntity
  8
Sichtbare_Kanten_TC_020513_DIN_
  6
Continuous
 62
     7
100
AcDbCircle
 10
107.527781560252
 20
92.4339825342499
 30
0.0
 40
1.0
100
AcDbArc
 50
90.0
 51
180.0
  0
ARC
  5
877
330
1F
100
AcDbEntity
  8
Sichtbare_Kanten_TC_020513_DIN_
  6
Continuous
 62
     7
100
AcDbCircle
 10
111.527781560252
 20
94.4339825342499
 30
0.0
 40
1.0
100
AcDbArc
 50
270.0
 51
0.0
  0
ARC
  5
878
330
1F
100
AcDbEntity
  8
Sichtbare_Kanten_TC_020513_DIN_
  6
Continuous
 62
     7
100
AcDbCircle
 10
111.527781560252
 20
106.43398253425
 30
0.0
 40
1.0
100
AcDbArc
 50
0.0
 51
90.0
  0
ARC
  5
879
330
1F
100
AcDbEntity
  8
Sichtbare_Kanten_TC_020513_DIN_
  6
Continuous
 62
     7
100
AcDbCircle
 10
107.527781560252
 20
108.43398253425
 30
0.0
 40
1.0
100
AcDbArc
 50
180.0
 51
270.0
  0
ARC
  5
87A
330
1F
100
AcDbEntity
  8
Sichtbare_Kanten_TC_020513_DIN_
  6
Continuous
 62
     7
100
AcDbCircle
 10
67.5277815602515
 20
108.43398253425
 30
0.0
 40
1.0
100
AcDbArc
 50
270.0
 51
0.0
  0
ARC
  5
87B
330
1F
100
AcDbEntity
  8
Sichtbare_Kanten_TC_020513_DIN_
  6
Continuous
 62
     7
100
AcDbCircle
 10
63.5277815602515
 20
106.43398253425
 30
0.0
 40
1.0
100
AcDbArc
 50
90.0
 51
180.0
  0
ARC
  5
87C
330
1F
100
AcDbEntity
  8
Sichtbare_Kanten_TC_020513_DIN_
  6
Continuous
 62
     7
100
AcDbCircle
 10
63.5277815602515
 20
94.4339825342499
 30
0.0
 40
1.0
100
AcDbArc
 50
180.0
 51
270.0
  0
ARC
  5
87D
330
1F
100
AcDbEntity
  8
Sichtbare_Kanten_TC_020513_DIN_
  6
Continuous
 62
     7
100
AcDbCircle
 10
67.5277815602515
 20
92.4339825342499
 30
0.0
 40
1.0
100
AcDbArc
 50
0.0
 51
90.0
  0
ARC
  5
87E
330
1F
100
AcDbEntity
  8
Sichtbare_Kanten_TC_020513_DIN_
  6
Continuous
 62
     7
100
AcDbCircle
 10
85.2777815602515
 20
89.1839825342541
 30
0.0
 40
2.000000000000023
100
AcDbArc
 50
298.955024371861
 51
241.0449756281415
  0
ARC
  5
87F
330
1F
100
AcDbEntity
  8
Sichtbare_Kanten_TC_020513_DIN_
  6
Continuous
 62
     7
100
AcDbCircle
 10
89.7777815602515
 20
89.1839825342541
 30
0.0
 40
2.000000000000023
100
AcDbArc
 50
298.955024371861
 51
241.044975628139
  0
ARC
  5
880
330
1F
100
AcDbEntity
  8
Sichtbare_Kanten_TC_020513_DIN_
  6
Continuous
 62
     7
100
AcDbCircle
 10
96.0277815602515
 20
88.933982534254
 30
0.0
 40
2.5
100
AcDbArc
 50
270.0
 51
0.0
  0
ARC
  5
881
330
1F
100
AcDbEntity
  8
Sichtbare_Kanten_TC_020513_DIN_
  6
Continuous
 62
     7
100
AcDbCircle
 10
96.0277815602515
 20
111.933982534254
 30
0.0
 40
2.5
100
AcDbArc
 50
0.0
 51
90.0
  0
ARC
  5
882
330
1F
100
AcDbEntity
  8
Sichtbare_Kanten_TC_020513_DIN_
  6
Continuous
 62
     7
100
AcDbCircle
 10
79.0277815602515
 20
111.933982534254
 30
0.0
 40
2.5
100
AcDbArc
 50
90.0
 51
180.0
  0
ARC
  5
883
330
1F
100
AcDbEntity
  8
Sichtbare_Kanten_TC_020513_DIN_
  6
Continuous
 62
     7
100
AcDbCircle
 10
79.0277815602515
 20
88.933982534254
 30
0.0
 40
2.5
100
AcDbArc
 50
180.0
 51
270.0
  0
ARC
  5
884
330
1F
100
AcDbEntity
  8
Sichtbare_Kanten_TC_020513_DIN_
  6
Continuous
 62
     7
100
AcDbCircle
 10
65.9777815602515
 20
86.9339825342493
 30
0.0
 40
3.5
100
AcDbArc
 50
180.0
 51
270.0
  0
ARC
  5
885
330
1F
100
AcDbEntity
  8
Sichtbare_Kanten_TC_020513_DIN_
  6
Continuous
 62
     7
100
AcDbCircle
 10
65.9777815602515
 20
113.933982534249
 30
0.0
 40
3.5
100
AcDbArc
 50
90.0
 51
180.0
  0
ARC
  5
886
330
1F
100
AcDbEntity
  8
Sichtbare_Kanten_TC_020513_DIN_
  6
Continuous
 62
     7
100
AcDbCircle
 10
109.077781560251
 20
86.9339825342493
 30
0.0
 40
3.5
100
AcDbArc
 50
270.0
 51
0.0
  0
ARC
  5
887
330
1F
100
AcDbEntity
  8
Sichtbare_Kanten_TC_020513_DIN_
  6
Continuous
 62
     7
100
AcDbCircle
 10
109.077781560251
 20
113.933982534249
 30
0.0
 40
3.5
100
AcDbArc
 50
0.0
 51
90.0
  0
ARC
  5
888
330
1F
100
AcDbEntity
  8
Sichtbare_Kanten_TC_020513_DIN_
  6
Continuous
 62
     7
100
AcDbCircle
 10
101.027781560252
 20
92.4339825342547
 30
0.0
 40
2.000000000000099
100
AcDbArc
 50
270.0
 51
0.0
  0
ARC
  5
889
330
1F
100
AcDbEntity
  8
Sichtbare_Kanten_TC_020513_DIN_
  6
Continuous
 62
     7
100
AcDbCircle
 10
102.027781560252
 20
107.433982534255
 30
0.0
 40
2.0
100
AcDbArc
 50
180.0
 51
270.0
  0
ARC
  5
88A
330
1F
100
AcDbEntity
  8
Sichtbare_Kanten_TC_020513_DIN_
  6
Continuous
 62
     7
100
AcDbCircle
 10
73.0277815602515
 20
107.433982534255
 30
0.0
 40
2.0
100
AcDbArc
 50
270.0
 51
0.0
  0
ARC
  5
88B
330
1F
100
AcDbEntity
  8
Sichtbare_Kanten_TC_020513_DIN_
  6
Continuous
 62
     7
100
AcDbCircle
 10
74.0277815602515
 20
92.4339825342546
 30
0.0
 40
2.0
100
AcDbArc
 50
179.9999999999971
 51
270.0
  0
ARC
  5
88C
330
1F
100
AcDbEntity
  8
Sichtbare_Kanten_TC_020513_DIN_
  6
Continuous
 62
     7
100
AcDbCircle
 10
101.027781560252
 20
92.4339825342547
 30
0.0
 40
1.000000000000099
100
AcDbArc
 50
270.0
 51
0.0
  0
ARC
  5
88D
330
1F
100
AcDbEntity
  8
Sichtbare_Kanten_TC_020513_DIN_
  6
Continuous
 62
     7
100
AcDbCircle
 10
74.0277815602515
 20
92.4339825342546
 30
0.0
 40
1.0
100
AcDbArc
 50
179.9999999999943
 51
270.0
  0
ARC
  5
88E
330
1F
100
AcDbEntity
  8
Sichtbare_Kanten_TC_020513_DIN_
  6
Continuous
 62
     7
100
AcDbCircle
 10
158.058715199128
 20
160.784662489797
 30
0.0
 40
6.000000000000067
100
AcDbArc
 50
41.40962210927158
 51
48.59037789072822
  0
ARC
  5
88F
330
1F
100
AcDbEntity
  8
Sichtbare_Kanten_TC_020513_DIN_
  6
Continuous
 62
     7
100
AcDbCircle
 10
158.058715199128
 20
160.784662489797
 30
0.0
 40
6.000000000000085
100
AcDbArc
 50
221.4096221092718
 51
228.5903778907284
  0
ARC
  5
890
330
1F
100
AcDbEntity
  8
Sichtbare_Kanten_TC_020513_DIN_
  6
Continuous
 62
     7
100
AcDbCircle
 10
158.058715199128
 20
160.784662489797
 30
0.0
 40
6.000000000000085
100
AcDbArc
 50
311.4096221092718
 51
318.5903778907282
  0
ARC
  5
891
330
1F
100
AcDbEntity
  8
Sichtbare_Kanten_TC_020513_DIN_
  6
Continuous
 62
     7
100
AcDbCircle
 10
158.058715199128
 20
160.784662489797
 30
0.0
 40
6.000000000000067
100
AcDbArc
 50
131.4096221092716
 51
138.5903778907284
  0
CIRCLE
  5
892
330
1F
100
AcDbEntity
  8
Sichtbare_Kanten_TC_020513_DIN_
  6
Continuous
 62
     7
100
AcDbCircle
 10
94.2777815604073
 20
224.336965018676
 30
0.0
 40
2.0
  0
CIRCLE
  5
893
330
1F
100
AcDbEntity
  8
Sichtbare_Kanten_TC_020513_DIN_
  6
Continuous
 62
     7
100
AcDbCircle
 10
94.2777815604073
 20
224.336965018676
 30
0.0
 40
1.5
  0
CIRCLE
  5
894
330
1F
100
AcDbEntity
  8
Sichtbare_Kanten_TC_020513_DIN_
  6
Continuous
 62
     7
100
AcDbCircle
 10
94.2777815604073
 20
228.836965018676
 30
0.0
 40
2.0
  0
CIRCLE
  5
895
330
1F
100
AcDbEntity
  8
Sichtbare_Kanten_TC_020513_DIN_
  6
Continuous
 62
     7
100
AcDbCircle
 10
94.2777815604073
 20
233.336965018676
 30
0.0
 40
2.0
  0
CIRCLE
  5
896
330
1F
100
AcDbEntity
  8
Sichtbare_Kanten_TC_020513_DIN_
  6
Continuous
 62
     7
100
AcDbCircle
 10
94.2777815604073
 20
237.836965018676
 30
0.0
 40
2.0
  0
CIRCLE
  5
897
330
1F
100
AcDbEntity
  8
Sichtbare_Kanten_TC_020513_DIN_
  6
Continuous
 62
     7
100
AcDbCircle
 10
94.2777815604073
 20
242.336965018676
 30
0.0
 40
2.0
  0
CIRCLE
  5
898
330
1F
100
AcDbEntity
  8
Sichtbare_Kanten_TC_020513_DIN_
  6
Continuous
 62
     7
100
AcDbCircle
 10
94.2777815604073
 20
246.836965018676
 30
0.0
 40
2.0
  0
CIRCLE
  5
899
330
1F
100
AcDbEntity
  8
Sichtbare_Kanten_TC_020513_DIN_
  6
Continuous
 62
     7
100
AcDbCircle
 10
89.7777815604073
 20
224.336965018676
 30
0.0
 40
2.0
  0
CIRCLE
  5
89A
330
1F
100
AcDbEntity
  8
Sichtbare_Kanten_TC_020513_DIN_
  6
Continuous
 62
     7
100
AcDbCircle
 10
89.7777815604073
 20
228.836965018676
 30
0.0
 40
2.0
  0
CIRCLE
  5
89B
330
1F
100
AcDbEntity
  8
Sichtbare_Kanten_TC_020513_DIN_
  6
Continuous
 62
     7
100
AcDbCircle
 10
89.7777815604073
 20
233.336965018676
 30
0.0
 40
2.0
  0
CIRCLE
  5
89C
330
1F
100
AcDbEntity
  8
Sichtbare_Kanten_TC_020513_DIN_
  6
Continuous
 62
     7
100
AcDbCircle
 10
89.7777815604073
 20
237.836965018676
 30
0.0
 40
2.0
  0
CIRCLE
  5
89D
330
1F
100
AcDbEntity
  8
Sichtbare_Kanten_TC_020513_DIN_
  6
Continuous
 62
     7
100
AcDbCircle
 10
89.7777815604073
 20
242.336965018676
 30
0.0
 40
2.0
  0
CIRCLE
  5
89E
330
1F
100
AcDbEntity
  8
Sichtbare_Kanten_TC_020513_DIN_
  6
Continuous
 62
     7
100
AcDbCircle
 10
89.7777815604073
 20
246.836965018676
 30
0.0
 40
2.0
  0
CIRCLE
  5
89F
330
1F
100
AcDbEntity
  8
Sichtbare_Kanten_TC_020513_DIN_
  6
Continuous
 62
     7
100
AcDbCircle
 10
85.2777815604073
 20
224.336965018676
 30
0.0
 40
2.0
  0
CIRCLE
  5
8A0
330
1F
100
AcDbEntity
  8
Sichtbare_Kanten_TC_020513_DIN_
  6
Continuous
 62
     7
100
AcDbCircle
 10
85.2777815604073
 20
228.836965018676
 30
0.0
 40
2.0
  0
CIRCLE
  5
8A1
330
1F
100
AcDbEntity
  8
Sichtbare_Kanten_TC_020513_DIN_
  6
Continuous
 62
     7
100
AcDbCircle
 10
85.2777815604073
 20
233.336965018676
 30
0.0
 40
2.0
  0
CIRCLE
  5
8A2
330
1F
100
AcDbEntity
  8
Sichtbare_Kanten_TC_020513_DIN_
  6
Continuous
 62
     7
100
AcDbCircle
 10
85.2777815604073
 20
237.836965018676
 30
0.0
 40
2.0
  0
CIRCLE
  5
8A3
330
1F
100
AcDbEntity
  8
Sichtbare_Kanten_TC_020513_DIN_
  6
Continuous
 62
     7
100
AcDbCircle
 10
85.2777815604073
 20
242.336965018676
 30
0.0
 40
2.0
  0
CIRCLE
  5
8A4
330
1F
100
AcDbEntity
  8
Sichtbare_Kanten_TC_020513_DIN_
  6
Continuous
 62
     7
100
AcDbCircle
 10
85.2777815604073
 20
246.836965018676
 30
0.0
 40
2.0
  0
CIRCLE
  5
8A5
330
1F
100
AcDbEntity
  8
Sichtbare_Kanten_TC_020513_DIN_
  6
Continuous
 62
     7
100
AcDbCircle
 10
80.7777815604073
 20
224.336965018676
 30
0.0
 40
2.0
  0
CIRCLE
  5
8A6
330
1F
100
AcDbEntity
  8
Sichtbare_Kanten_TC_020513_DIN_
  6
Continuous
 62
     7
100
AcDbCircle
 10
80.7777815604073
 20
228.836965018676
 30
0.0
 40
2.0
  0
CIRCLE
  5
8A7
330
1F
100
AcDbEntity
  8
Sichtbare_Kanten_TC_020513_DIN_
  6
Continuous
 62
     7
100
AcDbCircle
 10
80.7777815604073
 20
233.336965018676
 30
0.0
 40
2.0
  0
CIRCLE
  5
8A8
330
1F
100
AcDbEntity
  8
Sichtbare_Kanten_TC_020513_DIN_
  6
Continuous
 62
     7
100
AcDbCircle
 10
80.7777815604073
 20
237.836965018676
 30
0.0
 40
2.0
  0
CIRCLE
  5
8A9
330
1F
100
AcDbEntity
  8
Sichtbare_Kanten_TC_020513_DIN_
  6
Continuous
 62
     7
100
AcDbCircle
 10
80.7777815604073
 20
242.336965018676
 30
0.0
 40
2.0
  0
CIRCLE
  5
8AA
330
1F
100
AcDbEntity
  8
Sichtbare_Kanten_TC_020513_DIN_
  6
Continuous
 62
     7
100
AcDbCircle
 10
80.7777815604073
 20
246.836965018676
 30
0.0
 40
2.0
  0
CIRCLE
  5
8AB
330
1F
100
AcDbEntity
  8
Sichtbare_Kanten_TC_020513_DIN_
  6
Continuous
 62
     7
100
AcDbCircle
 10
80.7777815604073
 20
246.836965018676
 30
0.0
 40
1.5
  0
CIRCLE
  5
8AC
330
1F
100
AcDbEntity
  8
Sichtbare_Kanten_TC_020513_DIN_
  6
Continuous
 62
     7
100
AcDbCircle
 10
80.7777815604073
 20
242.336965018676
 30
0.0
 40
1.5
  0
CIRCLE
  5
8AD
330
1F
100
AcDbEntity
  8
Sichtbare_Kanten_TC_020513_DIN_
  6
Continuous
 62
     7
100
AcDbCircle
 10
80.7777815604073
 20
237.836965018676
 30
0.0
 40
1.5
  0
CIRCLE
  5
8AE
330
1F
100
AcDbEntity
  8
Sichtbare_Kanten_TC_020513_DIN_
  6
Continuous
 62
     7
100
AcDbCircle
 10
80.7777815604073
 20
233.336965018676
 30
0.0
 40
1.5
  0
CIRCLE
  5
8AF
330
1F
100
AcDbEntity
  8
Sichtbare_Kanten_TC_020513_DIN_
  6
Continuous
 62
     7
100
AcDbCircle
 10
80.7777815604073
 20
228.836965018676
 30
0.0
 40
1.5
  0
CIRCLE
  5
8B0
330
1F
100
AcDbEntity
  8
Sichtbare_Kanten_TC_020513_DIN_
  6
Continuous
 62
     7
100
AcDbCircle
 10
80.7777815604073
 20
224.336965018676
 30
0.0
 40
1.5
  0
CIRCLE
  5
8B1
330
1F
100
AcDbEntity
  8
Sichtbare_Kanten_TC_020513_DIN_
  6
Continuous
 62
     7
100
AcDbCircle
 10
85.2777815604073
 20
246.836965018676
 30
0.0
 40
1.5
  0
CIRCLE
  5
8B2
330
1F
100
AcDbEntity
  8
Sichtbare_Kanten_TC_020513_DIN_
  6
Continuous
 62
     7
100
AcDbCircle
 10
85.2777815604073
 20
242.336965018676
 30
0.0
 40
1.5
  0
CIRCLE
  5
8B3
330
1F
100
AcDbEntity
  8
Sichtbare_Kanten_TC_020513_DIN_
  6
Continuous
 62
     7
100
AcDbCircle
 10
85.2777815604073
 20
237.836965018676
 30
0.0
 40
1.5
  0
CIRCLE
  5
8B4
330
1F
100
AcDbEntity
  8
Sichtbare_Kanten_TC_020513_DIN_
  6
Continuous
 62
     7
100
AcDbCircle
 10
85.2777815604073
 20
233.336965018676
 30
0.0
 40
1.5
  0
CIRCLE
  5
8B5
330
1F
100
AcDbEntity
  8
Sichtbare_Kanten_TC_020513_DIN_
  6
Continuous
 62
     7
100
AcDbCircle
 10
85.2777815604073
 20
228.836965018676
 30
0.0
 40
1.5
  0
CIRCLE
  5
8B6
330
1F
100
AcDbEntity
  8
Sichtbare_Kanten_TC_020513_DIN_
  6
Continuous
 62
     7
100
AcDbCircle
 10
85.2777815604073
 20
224.336965018676
 30
0.0
 40
1.5
  0
CIRCLE
  5
8B7
330
1F
100
AcDbEntity
  8
Sichtbare_Kanten_TC_020513_DIN_
  6
Continuous
 62
     7
100
AcDbCircle
 10
89.7777815604073
 20
246.836965018676
 30
0.0
 40
1.5
  0
CIRCLE
  5
8B8
330
1F
100
AcDbEntity
  8
Sichtbare_Kanten_TC_020513_DIN_
  6
Continuous
 62
     7
100
AcDbCircle
 10
89.7777815604073
 20
242.336965018676
 30
0.0
 40
1.5
  0
CIRCLE
  5
8B9
330
1F
100
AcDbEntity
  8
Sichtbare_Kanten_TC_020513_DIN_
  6
Continuous
 62
     7
100
AcDbCircle
 10
89.7777815604073
 20
237.836965018676
 30
0.0
 40
1.5
  0
CIRCLE
  5
8BA
330
1F
100
AcDbEntity
  8
Sichtbare_Kanten_TC_020513_DIN_
  6
Continuous
 62
     7
100
AcDbCircle
 10
89.7777815604073
 20
233.336965018676
 30
0.0
 40
1.5
  0
CIRCLE
  5
8BB
330
1F
100
AcDbEntity
  8
Sichtbare_Kanten_TC_020513_DIN_
  6
Continuous
 62
     7
100
AcDbCircle
 10
89.7777815604073
 20
228.836965018676
 30
0.0
 40
1.5
  0
CIRCLE
  5
8BC
330
1F
100
AcDbEntity
  8
Sichtbare_Kanten_TC_020513_DIN_
  6
Continuous
 62
     7
100
AcDbCircle
 10
89.7777815604073
 20
224.336965018676
 30
0.0
 40
1.5
  0
CIRCLE
  5
8BD
330
1F
100
AcDbEntity
  8
Sichtbare_Kanten_TC_020513_DIN_
  6
Continuous
 62
     7
100
AcDbCircle
 10
94.2777815604073
 20
246.836965018676
 30
0.0
 40
1.5
  0
CIRCLE
  5
8BE
330
1F
100
AcDbEntity
  8
Sichtbare_Kanten_TC_020513_DIN_
  6
Continuous
 62
     7
100
AcDbCircle
 10
94.2777815604073
 20
242.336965018676
 30
0.0
 40
1.5
  0
CIRCLE
  5
8BF
330
1F
100
AcDbEntity
  8
Sichtbare_Kanten_TC_020513_DIN_
  6
Continuous
 62
     7
100
AcDbCircle
 10
94.2777815604073
 20
237.836965018676
 30
0.0
 40
1.5
  0
CIRCLE
  5
8C0
330
1F
100
AcDbEntity
  8
Sichtbare_Kanten_TC_020513_DIN_
  6
Continuous
 62
     7
100
AcDbCircle
 10
94.2777815604073
 20
233.336965018676
 30
0.0
 40
1.5
  0
CIRCLE
  5
8C1
330
1F
100
AcDbEntity
  8
Sichtbare_Kanten_TC_020513_DIN_
  6
Continuous
 62
     7
100
AcDbCircle
 10
94.2777815604073
 20
228.836965018676
 30
0.0
 40
1.5
  0
CIRCLE
  5
8C2
330
1F
100
AcDbEntity
  8
Sichtbare_Kanten_TC_020513_DIN_
  6
Continuous
 62
     7
100
AcDbCircle
 10
65.5277815604073
 20
222.086965018678
 30
0.0
 40
1.5
  0
CIRCLE
  5
8C3
330
1F
100
AcDbEntity
  8
Sichtbare_Kanten_TC_020513_DIN_
  6
Continuous
 62
     7
100
AcDbCircle
 10
65.5277815604073
 20
222.086965018678
 30
0.0
 40
1.0
  0
CIRCLE
  5
8C4
330
1F
100
AcDbEntity
  8
Sichtbare_Kanten_TC_020513_DIN_
  6
Continuous
 62
     7
100
AcDbCircle
 10
65.5277815604073
 20
249.086965018678
 30
0.0
 40
1.5
  0
CIRCLE
  5
8C5
330
1F
100
AcDbEntity
  8
Sichtbare_Kanten_TC_020513_DIN_
  6
Continuous
 62
     7
100
AcDbCircle
 10
65.5277815604073
 20
249.086965018678
 30
0.0
 40
1.0
  0
CIRCLE
  5
8C6
330
1F
100
AcDbEntity
  8
Sichtbare_Kanten_TC_020513_DIN_
  6
Continuous
 62
     7
100
AcDbCircle
 10
109.527781560407
 20
222.086965018678
 30
0.0
 40
1.5
  0
CIRCLE
  5
8C7
330
1F
100
AcDbEntity
  8
Sichtbare_Kanten_TC_020513_DIN_
  6
Continuous
 62
     7
100
AcDbCircle
 10
109.527781560407
 20
222.086965018678
 30
0.0
 40
1.0
  0
CIRCLE
  5
8C8
330
1F
100
AcDbEntity
  8
Sichtbare_Kanten_TC_020513_DIN_
  6
Continuous
 62
     7
100
AcDbCircle
 10
109.527781560407
 20
249.086965018678
 30
0.0
 40
1.5
  0
CIRCLE
  5
8C9
330
1F
100
AcDbEntity
  8
Sichtbare_Kanten_TC_020513_DIN_
  6
Continuous
 62
     7
100
AcDbCircle
 10
109.527781560407
 20
249.086965018678
 30
0.0
 40
1.0
  0
CIRCLE
  5
8CA
330
1F
100
AcDbEntity
  8
Sichtbare_Kanten_TC_020513_DIN_
  6
Continuous
 62
     7
100
AcDbCircle
 10
80.7777815602515
 20
89.1839825342541
 30
0.0
 40
2.0
  0
CIRCLE
  5
8CB
330
1F
100
AcDbEntity
  8
Sichtbare_Kanten_TC_020513_DIN_
  6
Continuous
 62
     7
100
AcDbCircle
 10
80.7777815602515
 20
93.683982534254
 30
0.0
 40
2.0
  0
CIRCLE
  5
8CC
330
1F
100
AcDbEntity
  8
Sichtbare_Kanten_TC_020513_DIN_
  6
Continuous
 62
     7
100
AcDbCircle
 10
80.7777815602515
 20
98.183982534254
 30
0.0
 40
2.0
  0
CIRCLE
  5
8CD
330
1F
100
AcDbEntity
  8
Sichtbare_Kanten_TC_020513_DIN_
  6
Continuous
 62
     7
100
AcDbCircle
 10
80.7777815602515
 20
102.683982534254
 30
0.0
 40
2.0
  0
CIRCLE
  5
8CE
330
1F
100
AcDbEntity
  8
Sichtbare_Kanten_TC_020513_DIN_
  6
Continuous
 62
     7
100
AcDbCircle
 10
80.7777815602515
 20
107.183982534254
 30
0.0
 40
2.0
  0
CIRCLE
  5
8CF
330
1F
100
AcDbEntity
  8
Sichtbare_Kanten_TC_020513_DIN_
  6
Continuous
 62
     7
100
AcDbCircle
 10
80.7777815602515
 20
111.683982534254
 30
0.0
 40
2.0
  0
CIRCLE
  5
8D0
330
1F
100
AcDbEntity
  8
Sichtbare_Kanten_TC_020513_DIN_
  6
Continuous
 62
     7
100
AcDbCircle
 10
85.2777815602515
 20
93.683982534254
 30
0.0
 40
2.0
  0
CIRCLE
  5
8D1
330
1F
100
AcDbEntity
  8
Sichtbare_Kanten_TC_020513_DIN_
  6
Continuous
 62
     7
100
AcDbCircle
 10
85.2777815602515
 20
98.183982534254
 30
0.0
 40
2.0
  0
CIRCLE
  5
8D2
330
1F
100
AcDbEntity
  8
Sichtbare_Kanten_TC_020513_DIN_
  6
Continuous
 62
     7
100
AcDbCircle
 10
85.2777815602515
 20
102.683982534254
 30
0.0
 40
2.0
  0
CIRCLE
  5
8D3
330
1F
100
AcDbEntity
  8
Sichtbare_Kanten_TC_020513_DIN_
  6
Continuous
 62
     7
100
AcDbCircle
 10
85.2777815602515
 20
107.183982534254
 30
0.0
 40
2.0
  0
CIRCLE
  5
8D4
330
1F
100
AcDbEntity
  8
Sichtbare_Kanten_TC_020513_DIN_
  6
Continuous
 62
     7
100
AcDbCircle
 10
85.2777815602515
 20
111.683982534254
 30
0.0
 40
2.0
  0
CIRCLE
  5
8D5
330
1F
100
AcDbEntity
  8
Sichtbare_Kanten_TC_020513_DIN_
  6
Continuous
 62
     7
100
AcDbCircle
 10
89.7777815602515
 20
93.683982534254
 30
0.0
 40
2.0
  0
CIRCLE
  5
8D6
330
1F
100
AcDbEntity
  8
Sichtbare_Kanten_TC_020513_DIN_
  6
Continuous
 62
     7
100
AcDbCircle
 10
89.7777815602515
 20
98.183982534254
 30
0.0
 40
2.0
  0
CIRCLE
  5
8D7
330
1F
100
AcDbEntity
  8
Sichtbare_Kanten_TC_020513_DIN_
  6
Continuous
 62
     7
100
AcDbCircle
 10
89.7777815602515
 20
102.683982534254
 30
0.0
 40
2.0
  0
CIRCLE
  5
8D8
330
1F
100
AcDbEntity
  8
Sichtbare_Kanten_TC_020513_DIN_
  6
Continuous
 62
     7
100
AcDbCircle
 10
89.7777815602515
 20
107.183982534254
 30
0.0
 40
2.0
  0
CIRCLE
  5
8D9
330
1F
100
AcDbEntity
  8
Sichtbare_Kanten_TC_020513_DIN_
  6
Continuous
 62
     7
100
AcDbCircle
 10
89.7777815602515
 20
111.683982534254
 30
0.0
 40
2.0
  0
CIRCLE
  5
8DA
330
1F
100
AcDbEntity
  8
Sichtbare_Kanten_TC_020513_DIN_
  6
Continuous
 62
     7
100
AcDbCircle
 10
94.2777815602515
 20
89.1839825342541
 30
0.0
 40
2.0
  0
CIRCLE
  5
8DB
330
1F
100
AcDbEntity
  8
Sichtbare_Kanten_TC_020513_DIN_
  6
Continuous
 62
     7
100
AcDbCircle
 10
94.2777815602515
 20
93.683982534254
 30
0.0
 40
2.0
  0
CIRCLE
  5
8DC
330
1F
100
AcDbEntity
  8
Sichtbare_Kanten_TC_020513_DIN_
  6
Continuous
 62
     7
100
AcDbCircle
 10
94.2777815602515
 20
98.183982534254
 30
0.0
 40
2.0
  0
CIRCLE
  5
8DD
330
1F
100
AcDbEntity
  8
Sichtbare_Kanten_TC_020513_DIN_
  6
Continuous
 62
     7
100
AcDbCircle
 10
94.2777815602515
 20
102.683982534254
 30
0.0
 40
2.0
  0
CIRCLE
  5
8DE
330
1F
100
AcDbEntity
  8
Sichtbare_Kanten_TC_020513_DIN_
  6
Continuous
 62
     7
100
AcDbCircle
 10
94.2777815602515
 20
107.183982534254
 30
0.0
 40
2.0
  0
CIRCLE
  5
8DF
330
1F
100
AcDbEntity
  8
Sichtbare_Kanten_TC_020513_DIN_
  6
Continuous
 62
     7
100
AcDbCircle
 10
80.7777815602515
 20
89.1839825342541
 30
0.0
 40
1.5
  0
CIRCLE
  5
8E0
330
1F
100
AcDbEntity
  8
Sichtbare_Kanten_TC_020513_DIN_
  6
Continuous
 62
     7
100
AcDbCircle
 10
80.7777815602515
 20
93.683982534254
 30
0.0
 40
1.5
  0
CIRCLE
  5
8E1
330
1F
100
AcDbEntity
  8
Sichtbare_Kanten_TC_020513_DIN_
  6
Continuous
 62
     7
100
AcDbCircle
 10
80.7777815602515
 20
98.183982534254
 30
0.0
 40
1.5
  0
CIRCLE
  5
8E2
330
1F
100
AcDbEntity
  8
Sichtbare_Kanten_TC_020513_DIN_
  6
Continuous
 62
     7
100
AcDbCircle
 10
80.7777815602515
 20
102.683982534254
 30
0.0
 40
1.5
  0
CIRCLE
  5
8E3
330
1F
100
AcDbEntity
  8
Sichtbare_Kanten_TC_020513_DIN_
  6
Continuous
 62
     7
100
AcDbCircle
 10
80.7777815602515
 20
107.183982534254
 30
0.0
 40
1.5
  0
CIRCLE
  5
8E4
330
1F
100
AcDbEntity
  8
Sichtbare_Kanten_TC_020513_DIN_
  6
Continuous
 62
     7
100
AcDbCircle
 10
80.7777815602515
 20
111.683982534254
 30
0.0
 40
1.5
  0
CIRCLE
  5
8E5
330
1F
100
AcDbEntity
  8
Sichtbare_Kanten_TC_020513_DIN_
  6
Continuous
 62
     7
100
AcDbCircle
 10
85.2777815602515
 20
89.1839825342541
 30
0.0
 40
1.5
  0
CIRCLE
  5
8E6
330
1F
100
AcDbEntity
  8
Sichtbare_Kanten_TC_020513_DIN_
  6
Continuous
 62
     7
100
AcDbCircle
 10
85.2777815602515
 20
93.683982534254
 30
0.0
 40
1.5
  0
CIRCLE
  5
8E7
330
1F
100
AcDbEntity
  8
Sichtbare_Kanten_TC_020513_DIN_
  6
Continuous
 62
     7
100
AcDbCircle
 10
85.2777815602515
 20
98.183982534254
 30
0.0
 40
1.5
  0
CIRCLE
  5
8E8
330
1F
100
AcDbEntity
  8
Sichtbare_Kanten_TC_020513_DIN_
  6
Continuous
 62
     7
100
AcDbCircle
 10
85.2777815602515
 20
102.683982534254
 30
0.0
 40
1.5
  0
CIRCLE
  5
8E9
330
1F
100
AcDbEntity
  8
Sichtbare_Kanten_TC_020513_DIN_
  6
Continuous
 62
     7
100
AcDbCircle
 10
85.2777815602515
 20
107.183982534254
 30
0.0
 40
1.5
  0
CIRCLE
  5
8EA
330
1F
100
AcDbEntity
  8
Sichtbare_Kanten_TC_020513_DIN_
  6
Continuous
 62
     7
100
AcDbCircle
 10
85.2777815602515
 20
111.683982534254
 30
0.0
 40
1.5
  0
CIRCLE
  5
8EB
330
1F
100
AcDbEntity
  8
Sichtbare_Kanten_TC_020513_DIN_
  6
Continuous
 62
     7
100
AcDbCircle
 10
89.7777815602515
 20
89.1839825342541
 30
0.0
 40
1.5
  0
CIRCLE
  5
8EC
330
1F
100
AcDbEntity
  8
Sichtbare_Kanten_TC_020513_DIN_
  6
Continuous
 62
     7
100
AcDbCircle
 10
89.7777815602515
 20
93.683982534254
 30
0.0
 40
1.5
  0
CIRCLE
  5
8ED
330
1F
100
AcDbEntity
  8
Sichtbare_Kanten_TC_020513_DIN_
  6
Continuous
 62
     7
100
AcDbCircle
 10
89.7777815602515
 20
98.183982534254
 30
0.0
 40
1.5
  0
CIRCLE
  5
8EE
330
1F
100
AcDbEntity
  8
Sichtbare_Kanten_TC_020513_DIN_
  6
Continuous
 62
     7
100
AcDbCircle
 10
89.7777815602515
 20
102.683982534254
 30
0.0
 40
1.5
  0
CIRCLE
  5
8EF
330
1F
100
AcDbEntity
  8
Sichtbare_Kanten_TC_020513_DIN_
  6
Continuous
 62
     7
100
AcDbCircle
 10
89.7777815602515
 20
107.183982534254
 30
0.0
 40
1.5
  0
CIRCLE
  5
8F0
330
1F
100
AcDbEntity
  8
Sichtbare_Kanten_TC_020513_DIN_
  6
Continuous
 62
     7
100
AcDbCircle
 10
89.7777815602515
 20
111.683982534254
 30
0.0
 40
1.5
  0
CIRCLE
  5
8F1
330
1F
100
AcDbEntity
  8
Sichtbare_Kanten_TC_020513_DIN_
  6
Continuous
 62
     7
100
AcDbCircle
 10
94.2777815602515
 20
89.1839825342541
 30
0.0
 40
1.5
  0
CIRCLE
  5
8F2
330
1F
100
AcDbEntity
  8
Sichtbare_Kanten_TC_020513_DIN_
  6
Continuous
 62
     7
100
AcDbCircle
 10
94.2777815602515
 20
93.683982534254
 30
0.0
 40
1.5
  0
CIRCLE
  5
8F3
330
1F
100
AcDbEntity
  8
Sichtbare_Kanten_TC_020513_DIN_
  6
Continuous
 62
     7
100
AcDbCircle
 10
94.2777815602515
 20
98.183982534254
 30
0.0
 40
1.5
  0
CIRCLE
  5
8F4
330
1F
100
AcDbEntity
  8
Sichtbare_Kanten_TC_020513_DIN_
  6
Continuous
 62
     7
100
AcDbCircle
 10
94.2777815602515
 20
102.683982534254
 30
0.0
 40
1.5
  0
CIRCLE
  5
8F5
330
1F
100
AcDbEntity
  8
Sichtbare_Kanten_TC_020513_DIN_
  6
Continuous
 62
     7
100
AcDbCircle
 10
94.2777815602515
 20
107.183982534254
 30
0.0
 40
1.5
  0
CIRCLE
  5
8F6
330
1F
100
AcDbEntity
  8
Sichtbare_Kanten_TC_020513_DIN_
  6
Continuous
 62
     7
100
AcDbCircle
 10
94.2777815602515
 20
111.683982534254
 30
0.0
 40
2.0
  0
CIRCLE
  5
8F7
330
1F
100
AcDbEntity
  8
Sichtbare_Kanten_TC_020513_DIN_
  6
Continuous
 62
     7
100
AcDbCircle
 10
94.2777815602515
 20
111.683982534254
 30
0.0
 40
1.5
  0
CIRCLE
  5
8F8
330
1F
100
AcDbEntity
  8
Sichtbare_Kanten_TC_020513_DIN_
  6
Continuous
 62
     7
100
AcDbCircle
 10
65.5277815602515
 20
113.93398253425
 30
0.0
 40
2.749999999999438
  0
CIRCLE
  5
8F9
330
1F
100
AcDbEntity
  8
Sichtbare_Kanten_TC_020513_DIN_
  6
Continuous
 62
     7
100
AcDbCircle
 10
65.5277815602515
 20
86.9339825342497
 30
0.0
 40
2.749999999999942
  0
CIRCLE
  5
8FA
330
1F
100
AcDbEntity
  8
Sichtbare_Kanten_TC_020513_DIN_
  6
Continuous
 62
     7
100
AcDbCircle
 10
109.527781560252
 20
113.93398253425
 30
0.0
 40
2.749999999999293
  0
CIRCLE
  5
8FB
330
1F
100
AcDbEntity
  8
Sichtbare_Kanten_TC_020513_DIN_
  6
Continuous
 62
     7
100
AcDbCircle
 10
109.527781560252
 20
86.9339825342497
 30
0.0
 40
2.749999999999942
  0
CIRCLE
  5
8FC
330
1F
100
AcDbEntity
  8
Sichtbare_Kanten_TC_020513_DIN_
  6
Continuous
 62
     7
100
AcDbCircle
 10
158.058715199128
 20
160.784662489797
 30
0.0
 40
3.500000000000377
  0
LWPOLYLINE
  5
8FD
330
1F
100
AcDbEntity
  8
Sichtbare_Kanten_TC_020513_DIN_
  6
Continuous
 62
     7
100
AcDbPolyline
 90
       25
 70
     0
 43
0.0
 10
78.0315928006035
 20
246.102209025787
 10
78.027914001928
 20
246.102112466262
 10
78.0242459320885
 20
246.102076703475
 10
78.0205885910851
 20
246.102101737426
 10
78.0169413828713
 20
246.102187568115
 10
78.0133049034935
 20
246.102334195541
 10
78.0096791529519
 20
246.102542811798
 10
78.0060641312462
 20
246.102811032699
 10
78.0024598383767
 20
246.103140050338
 10
77.9988656782967
 20
246.103531056808
 10
77.9952822470528
 20
246.103981667923
 10
77.991709544645
 20
246.104494267867
 10
77.9881475710732
 20
246.10506766455
 10
77.984595730291
 20
246.105700665878
 10
77.9810546183449
 20
246.106395656036
 10
77.9775242352349
 20
246.107151442932
 10
77.9740045809609
 20
246.107968026565
 10
77.9704950594765
 20
246.108845406936
 10
77.9669962668282
 20
246.109783584045
 10
77.9635082030159
 20
246.110782557891
 10
77.9600308680398
 20
246.111842328475
 10
77.9565636658532
 20
246.112962895797
 10
77.9531077885491
 20
246.114144259857
 10
77.9496620440346
 20
246.115387612747
 10
77.9462264323098
 20
246.116690570281
  0
LWPOLYLINE
  5
8FE
330
1F
100
AcDbEntity
  8
Sichtbare_Kanten_TC_020513_DIN_
  6
Continuous
 62
     7
100
AcDbPolyline
 90
       25
 70
     0
 43
0.0
 10
77.9462264323098
 20
246.116690570281
 10
77.9374293827874
 20
246.120276385711
 10
77.9280273461205
 20
246.124719315933
 10
77.9180674099785
 20
246.129980021881
 10
77.9075948738915
 20
246.136016780303
 10
77.8966562294823
 20
246.142791444229
 10
77.8852985644204
 20
246.150263482498
 10
77.8735677742821
 20
246.158391171859
 10
77.8615103506905
 20
246.167136365341
 10
77.8491715931756
 20
246.176458531784
 10
77.8365991854531
 20
246.186318332122
 10
77.8238390230996
 20
246.196674043106
 10
77.8109370016915
 20
246.207487517761
 10
77.7979396128518
 20
246.218717032836
 10
77.7848933482033
 20
246.230323249267
 10
77.7718446993691
 20
246.242266827987
 10
77.7588395619256
 20
246.254507237838
 10
77.7459244274956
 20
246.267003947662
 10
77.7331457877022
 20
246.2797164263
 10
77.7205489420754
 20
246.292607718872
 10
77.708181574331
 20
246.305633717941
 10
77.6960895800454
 20
246.318757468628
 10
77.6843188547951
 20
246.33193724768
 10
77.6729164862496
 20
246.345133716033
 10
77.6619277739388
 20
246.358306342529
  0
LWPOLYLINE
  5
8FF
330
1F
100
AcDbEntity
  8
Sichtbare_Kanten_TC_020513_DIN_
  6
Continuous
 62
     7
100
AcDbPolyline
 90
       25
 70
     0
 43
0.0
 10
77.6619277739388
 20
246.358306342529
 10
77.6450560831887
 20
246.378345424102
 10
77.6280085587365
 20
246.397854024337
 10
77.6108310961586
 20
246.41680591719
 10
77.5935701870781
 20
246.435171300338
 10
77.5762723231179
 20
246.452921563552
 10
77.5589839959008
 20
246.470028096603
 10
77.5417511010033
 20
246.486461097168
 10
77.5246201300484
 20
246.502191955017
 10
77.5076363825661
 20
246.517193252014
 10
77.4908481383187
 20
246.531435185836
 10
77.4743006968361
 20
246.544887954162
 10
77.4580405497414
 20
246.557525330947
 10
77.4421141886574
 20
246.569316321777
 10
77.4265669131142
 20
246.580233508514
 10
77.4114452147347
 20
246.590247088836
 10
77.3967967772347
 20
246.599329644607
 10
77.3826669001442
 20
246.607451373504
 10
77.3691020750863
 20
246.614582473205
 10
77.3561487936837
 20
246.620696717666
 10
77.3438523554665
 20
246.625763112472
 10
77.3322604441506
 20
246.629754239486
 10
77.3214195513588
 20
246.632640296386
 10
77.3113737845284
 20
246.634392672943
 10
77.302172019468
 20
246.634982758926
  0
LWPOLYLINE
  5
900
330
1F
100
AcDbEntity
  8
Sichtbare_Kanten_TC_020513_DIN_
  6
Continuous
 62
     7
100
AcDbPolyline
 90
       25
 70
     0
 43
0.0
 10
77.302172019468
 20
246.634982758926
 10
77.2928951525551
 20
246.634448701309
 10
77.2833965563637
 20
246.632879907058
 10
77.2737298750741
 20
246.630332404541
 10
77.2639487528664
 20
246.626859837936
 10
77.2541104101998
 20
246.622517043518
 10
77.2442684912545
 20
246.617357665466
 10
77.2344790243966
 20
246.611435347961
 10
77.2247944617134
 20
246.604806119369
 10
77.2152720236641
 20
246.597522431777
 10
77.2059665465218
 20
246.589640313552
 10
77.1969316744668
 20
246.581212216781
 10
77.1882234358651
 20
246.572292977737
 10
77.1798966669899
 20
246.562937432693
 10
77.1720050120217
 20
246.55319922583
 10
77.1646044993264
 20
246.54313319342
 10
77.1577499651772
 20
246.532792979644
 10
77.1514962458474
 20
246.522233420776
 10
77.1458981776101
 20
246.511508160995
 10
77.1410105967385
 20
246.500670844482
 10
77.1368883395058
 20
246.489777499603
 10
77.1335862421853
 20
246.478881770538
 10
77.1311603331429
 20
246.468037301467
 10
77.129664256559
 20
246.457298928665
 10
77.1291540407998
 20
246.446721488403
  0
LWPOLYLINE
  5
901
330
1F
100
AcDbEntity
  8
Sichtbare_Kanten_TC_020513_DIN_
  6
Continuous
 62
     7
100
AcDbPolyline
 90
       25
 70
     0
 43
0.0
 10
77.1291540407998
 20
246.446721488403
 10
77.1297000193459
 20
246.435587340759
 10
77.131306960569
 20
246.424323254989
 10
77.1339212202889
 20
246.412984067367
 10
77.1374915385109
 20
246.401621037887
 10
77.1419654631478
 20
246.390289002822
 10
77.1472917342049
 20
246.37904041426
 10
77.153416707502
 20
246.367928916381
 10
77.1602903151375
 20
246.357008153366
 10
77.167860105024
 20
246.346330577301
 10
77.1760736250741
 20
246.335948640274
 10
77.1848796152932
 20
246.325918370651
 10
77.194225623594
 20
246.316291028427
 10
77.2040603899819
 20
246.307119065689
 10
77.2143314623696
 20
246.29845731871
 10
77.2249863886696
 20
246.290359431671
 10
77.2359739088875
 20
246.282877856658
 10
77.2472415709359
 20
246.276065045761
 10
77.2587381148201
 20
246.269974643157
 10
77.2704122805459
 20
246.264661485122
 10
77.2822104239327
 20
246.260176831649
 10
77.2940812849862
 20
246.256575519012
 10
77.3059724116189
 20
246.253909999298
 10
77.3178337359292
 20
246.252233916686
 10
77.3296104216439
 20
246.251599723266
  0
LWPOLYLINE
  5
902
330
1F
100
AcDbEntity
  8
Sichtbare_Kanten_TC_020513_DIN_
  6
Continuous
 62
     7
100
AcDbPolyline
 90
       25
 70
     0
 43
0.0
 10
77.3166535639626
 20
246.125074559616
 10
77.2990034365517
 20
246.127494508194
 10
77.2813485407692
 20
246.131462985443
 10
77.2637568259102
 20
246.136900121139
 10
77.2462950491768
 20
246.143727237152
 10
77.2290299677712
 20
246.151864463256
 10
77.2120307230813
 20
246.161231929229
 10
77.1953616881234
 20
246.171749764846
 10
77.1790908121926
 20
246.183340484069
 10
77.1632872366768
 20
246.195923024581
 10
77.1480153345925
 20
246.209418708251
 10
77.1333442473275
 20
246.223748856948
 10
77.1193407320839
 20
246.238832408355
 10
77.1060703539711
 20
246.254590684341
 10
77.093602254377
 20
246.270945006774
 10
77.0820031905037
 20
246.287815505432
 10
77.0713399195534
 20
246.305122310089
 10
77.0616791987282
 20
246.322786742614
 10
77.0530889773232
 20
246.340728932784
 10
77.0456360125405
 20
246.358869010376
 10
77.0393870615822
 20
246.377128297256
 10
77.0344100737435
 20
246.395428115295
 10
77.0307729983193
 20
246.413687402175
 10
77.028540208326
 20
246.431827479766
 10
77.0277820372445
 20
246.449769669937
  0
LWPOLYLINE
  5
903
330
1F
100
AcDbEntity
  8
Sichtbare_Kanten_TC_020513_DIN_
  6
Continuous
 62
     7
100
AcDbPolyline
 90
       25
 70
     0
 43
0.0
 10
77.0277820372445
 20
246.449769669937
 10
77.0285962366921
 20
246.46788590567
 10
77.0309839987618
 20
246.486165458129
 10
77.0348571085793
 20
246.504524880813
 10
77.0401285433632
 20
246.522880727218
 10
77.0467112803322
 20
246.541150742935
 10
77.0545182967049
 20
246.559252673553
 10
77.0634625696999
 20
246.577100688384
 10
77.0734570765358
 20
246.594614917205
 10
77.0844147944314
 20
246.61171072142
 10
77.0962487006051
 20
246.628305846618
 10
77.1088729643685
 20
246.644315654205
 10
77.1221981787545
 20
246.659659081863
 10
77.1361397051674
 20
246.67425268309
 10
77.1506093287331
 20
246.68801181929
 10
77.1655200266701
 20
246.700855428146
 10
77.1807847761971
 20
246.712698871063
 10
77.1963177466256
 20
246.72345989363
 10
77.2120307230813
 20
246.733056241439
 10
77.2278366827828
 20
246.741404467987
 10
77.2436486029488
 20
246.748419934677
 10
77.2593806528908
 20
246.754021579193
 10
77.2749446177346
 20
246.758124762939
 10
77.2902534746987
 20
246.760648423599
 10
77.3052202010018
 20
246.761507922576
  0
LWPOLYLINE
  5
904
330
1F
100
AcDbEntity
  8
Sichtbare_Kanten_TC_020513_DIN_
  6
Continuous
 62
     7
100
AcDbPolyline
 90
       25
 70
     0
 43
0.0
 10
77.3052202010018
 20
246.761507922576
 10
77.3158226752144
 20
246.760995322631
 10
77.327509953962
 20
246.759439641403
 10
77.3402081274849
 20
246.756819421218
 10
77.3538432860238
 20
246.753116780685
 10
77.3683450960976
 20
246.748319798873
 10
77.3836432242257
 20
246.742420131134
 10
77.3996673369271
 20
246.735414201187
 10
77.4163506769997
 20
246.727303201126
 10
77.4336241030556
 20
246.718093091415
 10
77.4514232420784
 20
246.707795792983
 10
77.4696825289589
 20
246.696425610946
 10
77.4883375906807
 20
246.684001618789
 10
77.5073264384133
 20
246.670551234649
 10
77.5265882754189
 20
246.656101876663
 10
77.5460599207741
 20
246.640689307617
 10
77.56568415402
 20
246.624350482391
 10
77.5854019665581
 20
246.607129508422
 10
77.6051561379296
 20
246.589076453613
 10
77.6248906397683
 20
246.570241385864
 10
77.6445500397545
 20
246.55068390982
 10
77.6640812897545
 20
246.530464822219
 10
77.683430745588
 20
246.50965326445
 10
77.7025465512139
 20
246.488318377899
 10
77.7213792347771
 20
246.466537648605
  0
LWPOLYLINE
  5
905
330
1F
100
AcDbEntity
  8
Sichtbare_Kanten_TC_020513_DIN_
  6
Continuous
 62
     7
100
AcDbPolyline
 90
       25
 70
     0
 43
0.0
 10
77.7213792347771
 20
246.466537648605
 10
77.7327720665795
 20
246.452972823547
 10
77.7438919091088
 20
246.439905101226
 10
77.7547357821328
 20
246.42733328955
 10
77.7653007054192
 20
246.415252620147
 10
77.7755836987358
 20
246.403661900924
 10
77.7855823778969
 20
246.392557555603
 10
77.7952925705773
 20
246.381938392089
 10
77.8047124886376
 20
246.371799642013
 10
77.8138385557992
 20
246.362141305374
 10
77.8226677918297
 20
246.3529586138
 10
77.8311972164971
 20
246.344250375198
 10
77.839423849569
 20
246.336011821197
 10
77.8473453068596
 20
246.328242951797
 10
77.8549580120904
 20
246.320938998626
 10
77.8622583889824
 20
246.314098769592
 10
77.869245245443
 20
246.307719880508
 10
77.8759138131005
 20
246.301797563003
 10
77.8822617077691
 20
246.296330624984
 10
77.8882865452629
 20
246.291316682266
 10
77.8939847493035
 20
246.286752158569
 10
77.8993533396584
 20
246.282634669708
 10
77.9043893360955
 20
246.278961831497
 10
77.9090897583825
 20
246.27573125975
 10
77.9134522223336
 20
246.272940570281
  0
LWPOLYLINE
  5
906
330
1F
100
AcDbEntity
  8
Sichtbare_Kanten_TC_020513_DIN_
  6
Continuous
 62
     7
100
AcDbPolyline
 90
       25
 70
     0
 43
0.0
 10
98.0315922045571
 20
246.102209025787
 10
98.0279134058815
 20
246.102112466262
 10
98.0242453360421
 20
246.102076703475
 10
98.0205879950387
 20
246.102101737426
 10
98.0169413828713
 20
246.102187568115
 10
98.01330549954
 20
246.102334195541
 10
98.0096791529519
 20
246.102542811798
 10
98.0060647272927
 20
246.102811032699
 10
98.0024598383767
 20
246.103140050338
 10
97.9988656782967
 20
246.103531056808
 10
97.9952822470528
 20
246.103981667923
 10
97.991709544645
 20
246.104494267867
 10
97.9881475710732
 20
246.10506766455
 10
97.9845963263375
 20
246.105700665878
 10
97.9810546183449
 20
246.106395656036
 10
97.9775248312813
 20
246.107151442932
 10
97.9740045809609
 20
246.107968026565
 10
97.9704950594765
 20
246.108845406936
 10
97.9669962668282
 20
246.109783584045
 10
97.9635082030159
 20
246.110782557891
 10
97.9600308680398
 20
246.111842328475
 10
97.9565642618996
 20
246.112962895797
 10
97.9531071925027
 20
246.114144259857
 10
97.9496620440346
 20
246.115387612747
 10
97.9462264323098
 20
246.116690570281
  0
LWPOLYLINE
  5
907
330
1F
100
AcDbEntity
  8
Sichtbare_Kanten_TC_020513_DIN_
  6
Continuous
 62
     7
100
AcDbPolyline
 90
       25
 70
     0
 43
0.0
 10
97.9462264323098
 20
246.116690570281
 10
97.9374299788338
 20
246.120276385711
 10
97.9280279421669
 20
246.124719315933
 10
97.9180668139321
 20
246.129980021881
 10
97.9075942778451
 20
246.136016780303
 10
97.8966568255288
 20
246.142791444229
 10
97.8852985644204
 20
246.150263482498
 10
97.8735683703286
 20
246.158391171859
 10
97.8615103506905
 20
246.167136365341
 10
97.849172189222
 20
246.176458531784
 10
97.8365991854531
 20
246.186318332122
 10
97.8238390230996
 20
246.196674043106
 10
97.8109370016915
 20
246.207487517761
 10
97.7979396128518
 20
246.218717032836
 10
97.7848933482033
 20
246.230323249267
 10
97.7718446993691
 20
246.242266827987
 10
97.758840157972
 20
246.254507237838
 10
97.7459238314492
 20
246.267003947662
 10
97.7331457877022
 20
246.2797164263
 10
97.7205489420754
 20
246.292607718872
 10
97.7081821703774
 20
246.305633717941
 10
97.6960895800454
 20
246.318757468628
 10
97.6843188547951
 20
246.33193724768
 10
97.6729164862496
 20
246.345133716033
 10
97.6619277739388
 20
246.358306342529
  0
LWPOLYLINE
  5
908
330
1F
100
AcDbEntity
  8
Sichtbare_Kanten_TC_020513_DIN_
  6
Continuous
 62
     7
100
AcDbPolyline
 90
       25
 70
     0
 43
0.0
 10
97.6619277739388
 20
246.358306342529
 10
97.6450560831887
 20
246.378345424102
 10
97.62800796269
 20
246.397854024337
 10
97.6108310961586
 20
246.41680591719
 10
97.5935707831246
 20
246.435171300338
 10
97.5762723231179
 20
246.452921563552
 10
97.5589833998543
 20
246.470028096603
 10
97.5417505049569
 20
246.486461097168
 10
97.5246201300484
 20
246.502191955017
 10
97.5076369786126
 20
246.517193252014
 10
97.4908487343651
 20
246.531435185836
 10
97.4743012928826
 20
246.544887954162
 10
97.4580405497414
 20
246.557525330947
 10
97.442113592611
 20
246.569316321777
 10
97.4265669131142
 20
246.580233508514
 10
97.4114458107811
 20
246.590247088836
 10
97.3967967772347
 20
246.599329644607
 10
97.3826669001442
 20
246.607451373504
 10
97.3691020750863
 20
246.614582473205
 10
97.3561481976372
 20
246.620696717666
 10
97.3438523554665
 20
246.625763112472
 10
97.3322604441506
 20
246.629754239486
 10
97.3214189553124
 20
246.632640296386
 10
97.3113737845284
 20
246.634392672943
 10
97.302172019468
 20
246.634982758926
  0
LWPOLYLINE
  5
909
330
1F
100
AcDbEntity
  8
Sichtbare_Kanten_TC_020513_DIN_
  6
Continuous
 62
     7
100
AcDbPolyline
 90
       25
 70
     0
 43
0.0
 10
97.302172019468
 20
246.634982758926
 10
97.2928957486016
 20
246.634448701309
 10
97.2833965563637
 20
246.632879907058
 10
97.2737292790276
 20
246.630332404541
 10
97.2639493489129
 20
246.626859837936
 10
97.2541104101998
 20
246.622517043518
 10
97.2442684912545
 20
246.617357665466
 10
97.2344784283501
 20
246.611435347961
 10
97.2247950577599
 20
246.604806119369
 10
97.2152726197106
 20
246.597522431777
 10
97.2059665465218
 20
246.589640313552
 10
97.1969322705132
 20
246.581212216781
 10
97.1882234358651
 20
246.572292977737
 10
97.1798960709435
 20
246.562937432693
 10
97.1720050120217
 20
246.55319922583
 10
97.1646044993264
 20
246.54313319342
 10
97.1577499651772
 20
246.532792979644
 10
97.1514962458474
 20
246.522233420776
 10
97.1458981776101
 20
246.511508160995
 10
97.1410105967385
 20
246.500670844482
 10
97.1368883395058
 20
246.489777499603
 10
97.1335868382317
 20
246.478881770538
 10
97.1311603331429
 20
246.468037301467
 10
97.129664256559
 20
246.457298928665
 10
97.1291534447533
 20
246.446721488403
  0
LWPOLYLINE
  5
90A
330
1F
100
AcDbEntity
  8
Sichtbare_Kanten_TC_020513_DIN_
  6
Continuous
 62
     7
100
AcDbPolyline
 90
       25
 70
     0
 43
0.0
 10
97.1291534447533
 20
246.446721488403
 10
97.1297006153924
 20
246.435587340759
 10
97.1313075566155
 20
246.424323254989
 10
97.1339218163353
 20
246.412984067367
 10
97.1374915385109
 20
246.401621037887
 10
97.1419654631478
 20
246.390289002822
 10
97.1472911381585
 20
246.37904041426
 10
97.153416707502
 20
246.367928916381
 10
97.1602903151375
 20
246.357008153366
 10
97.167860105024
 20
246.346330577301
 10
97.1760742211205
 20
246.335948640274
 10
97.1848796152932
 20
246.325918370651
 10
97.194225623594
 20
246.316291028427
 10
97.2040603899819
 20
246.307119065689
 10
97.2143308663231
 20
246.29845731871
 10
97.2249863886696
 20
246.290359431671
 10
97.2359739088875
 20
246.282877856658
 10
97.2472415709359
 20
246.276065045761
 10
97.2587387108666
 20
246.269974643157
 10
97.2704116844994
 20
246.264661485122
 10
97.2822098278862
 20
246.260176831649
 10
97.2940806889397
 20
246.256575519012
 10
97.3059724116189
 20
246.253909999298
 10
97.3178331398827
 20
246.252233916686
 10
97.3296110176903
 20
246.251599723266
  0
LWPOLYLINE
  5
90B
330
1F
100
AcDbEntity
  8
Sichtbare_Kanten_TC_020513_DIN_
  6
Continuous
 62
     7
100
AcDbPolyline
 90
       25
 70
     0
 43
0.0
 10
97.3166535639626
 20
246.125074559616
 10
97.2990034365517
 20
246.127494508194
 10
97.2813485407692
 20
246.131462985443
 10
97.2637568259102
 20
246.136900121139
 10
97.2462950491768
 20
246.143727237152
 10
97.2290305638176
 20
246.151864463256
 10
97.2120301270348
 20
246.161231929229
 10
97.1953616881234
 20
246.171749764846
 10
97.179091408239
 20
246.183340484069
 10
97.1632872366768
 20
246.195923024581
 10
97.1480153345925
 20
246.209418708251
 10
97.1333442473275
 20
246.223748856948
 10
97.1193401360375
 20
246.238832408355
 10
97.1060703539711
 20
246.254590684341
 10
97.093602254377
 20
246.270945006774
 10
97.0820031905038
 20
246.287815505432
 10
97.071339323507
 20
246.305122310089
 10
97.0616791987282
 20
246.322786742614
 10
97.0530889773232
 20
246.340728932784
 10
97.0456360125405
 20
246.358869010376
 10
97.0393876576287
 20
246.377128297256
 10
97.0344106697899
 20
246.395428115295
 10
97.0307724022728
 20
246.413687402175
 10
97.028540208326
 20
246.431827479766
 10
97.027781441198
 20
246.449769669937
  0
LWPOLYLINE
  5
90C
330
1F
100
AcDbEntity
  8
Sichtbare_Kanten_TC_020513_DIN_
  6
Continuous
 62
     7
100
AcDbPolyline
 90
       25
 70
     0
 43
0.0
 10
97.027781441198
 20
246.449769669937
 10
97.0285968327385
 20
246.46788590567
 10
97.0309839987618
 20
246.486165458129
 10
97.0348571085793
 20
246.504524880813
 10
97.0401285433632
 20
246.522880727218
 10
97.0467112803322
 20
246.541150742935
 10
97.0545177006585
 20
246.559252673553
 10
97.0634619736535
 20
246.577100688384
 10
97.0734570765358
 20
246.594614917205
 10
97.0844147944314
 20
246.61171072142
 10
97.0962487006051
 20
246.628305846618
 10
97.1088723683221
 20
246.644315654205
 10
97.1221981787545
 20
246.659659081863
 10
97.1361397051674
 20
246.67425268309
 10
97.1506093287331
 20
246.68801181929
 10
97.1655200266701
 20
246.700855428146
 10
97.1807853722435
 20
246.712698871063
 10
97.1963177466256
 20
246.72345989363
 10
97.2120301270348
 20
246.733056241439
 10
97.2278360867363
 20
246.741404467987
 10
97.2436486029488
 20
246.748419934677
 10
97.2593800568444
 20
246.754021579193
 10
97.2749440216881
 20
246.758124762939
 10
97.2902534746987
 20
246.760648423599
 10
97.3052207970482
 20
246.761507922576
  0
LWPOLYLINE
  5
90D
330
1F
100
AcDbEntity
  8
Sichtbare_Kanten_TC_020513_DIN_
  6
Continuous
 62
     7
100
AcDbPolyline
 90
       25
 70
     0
 43
0.0
 10
97.3052207970482
 20
246.761507922576
 10
97.3158232712609
 20
246.760995322631
 10
97.327509953962
 20
246.759439641403
 10
97.340208127485
 20
246.756819421218
 10
97.3538432860238
 20
246.753116780685
 10
97.3683456921441
 20
246.748319798873
 10
97.3836432242257
 20
246.742420131134
 10
97.3996679329735
 20
246.735414201187
 10
97.4163506769997
 20
246.727303201126
 10
97.4336246991021
 20
246.718093091415
 10
97.4514232420784
 20
246.707795792983
 10
97.469682528959
 20
246.696425610946
 10
97.4883381867272
 20
246.684001618789
 10
97.5073270344597
 20
246.670551234649
 10
97.5265876793725
 20
246.656101876663
 10
97.5460599207741
 20
246.640689307617
 10
97.56568415402
 20
246.624350482391
 10
97.5854025626046
 20
246.607129508422
 10
97.605156733976
 20
246.589076453613
 10
97.6248906397683
 20
246.570241385864
 10
97.644550635801
 20
246.55068390982
 10
97.6640806937081
 20
246.530464822219
 10
97.683430745588
 20
246.50965326445
 10
97.7025471472603
 20
246.488318377899
 10
97.7213786387307
 20
246.466537648605
  0
LWPOLYLINE
  5
90E
330
1F
100
AcDbEntity
  8
Sichtbare_Kanten_TC_020513_DIN_
  6
Continuous
 62
     7
100
AcDbPolyline
 90
       25
 70
     0
 43
0.0
 10
97.7213786387307
 20
246.466537648605
 10
97.732771470533
 20
246.452972823547
 10
97.7438913130623
 20
246.439905101226
 10
97.7547357821328
 20
246.42733328955
 10
97.7653001093728
 20
246.415252620147
 10
97.7755842947823
 20
246.403661900924
 10
97.7855823778969
 20
246.392557555603
 10
97.7952931666237
 20
246.381938392089
 10
97.8047118925911
 20
246.371799642013
 10
97.8138385557992
 20
246.362141305374
 10
97.8226671957833
 20
246.3529586138
 10
97.8311978125435
 20
246.344250375198
 10
97.8394244456154
 20
246.336011821197
 10
97.8473447108132
 20
246.328242951797
 10
97.8549574160439
 20
246.320938998626
 10
97.8622589850289
 20
246.314098769592
 10
97.8692446493966
 20
246.307719880508
 10
97.875913217054
 20
246.301797563003
 10
97.8822623038155
 20
246.296330624984
 10
97.8882859492165
 20
246.291316682266
 10
97.893984153257
 20
246.286752158569
 10
97.8993533396584
 20
246.282634669708
 10
97.904388740049
 20
246.278961831497
 10
97.9090903544289
 20
246.27573125975
 10
97.9134522223336
 20
246.272940570281
  0
LWPOLYLINE
  5
90F
330
1F
100
AcDbEntity
  8
Sichtbare_Kanten_TC_020513_DIN_
  6
Continuous
 62
     7
100
AcDbPolyline
 90
       25
 70
     0
 43
0.0
 10
77.2495804571969
 20
224.345730477737
 10
77.2550354742867
 20
224.339697295593
 10
77.2608886504036
 20
224.332706862854
 10
77.2670946860177
 20
224.324836665557
 10
77.2736070895058
 20
224.316170150207
 10
77.2803805613381
 20
224.306788379119
 10
77.2873686098916
 20
224.296771222518
 10
77.2945247435433
 20
224.286199742721
 10
77.3018048548561
 20
224.275156194137
 10
77.3091612601143
 20
224.263721639083
 10
77.3165486597878
 20
224.251975947784
 10
77.3239193701607
 20
224.240000182556
 10
77.3312304758889
 20
224.227875405716
 10
77.3384342932564
 20
224.215683871673
 10
77.3454843306405
 20
224.203506642746
 10
77.3523352885109
 20
224.191422397064
 10
77.358940675245
 20
224.179515773223
 10
77.3652563834054
 20
224.167864257263
 10
77.3712335371834
 20
224.156551295684
 10
77.376828029142
 20
224.145656758712
 10
77.3819945597512
 20
224.135261708664
 10
77.3866842532021
 20
224.125448399948
 10
77.3908541941506
 20
224.116296702789
 10
77.3944566988808
 20
224.107887679504
 10
77.3974464678628
 20
224.100303584503
  0
LWPOLYLINE
  5
910
330
1F
100
AcDbEntity
  8
Sichtbare_Kanten_TC_020513_DIN_
  6
Continuous
 62
     7
100
AcDbPolyline
 90
       25
 70
     0
 43
0.0
 10
77.2785435461861
 20
224.100303584503
 10
77.2720847868783
 20
224.113418990539
 10
77.2647593760353
 20
224.126990968154
 10
77.2566400313241
 20
224.140945607589
 10
77.2477947020394
 20
224.155206614898
 10
77.238296105848
 20
224.169698888229
 10
77.2282145762307
 20
224.184347325729
 10
77.2176216387612
 20
224.199078017639
 10
77.2065864348275
 20
224.21381347792
 10
77.1951816820961
 20
224.228482180999
 10
77.1834765219552
 20
224.243005448745
 10
77.1715424799782
 20
224.257310563491
 10
77.1594510817391
 20
224.271321231292
 10
77.1472714686257
 20
224.284962350296
 10
77.1350751662117
 20
224.298160010742
 10
77.122933700071
 20
224.310837918685
 10
77.1109174036843
 20
224.322920972274
 10
77.0990966105324
 20
224.334335261749
 10
77.0875428461892
 20
224.345003301071
 10
77.0763252520424
 20
224.354853564666
 10
77.0655177378518
 20
224.363807374404
 10
77.0551882529122
 20
224.371792012619
 10
77.0454083227974
 20
224.378732377456
 10
77.0362494730813
 20
224.384550982879
 10
77.0277820372445
 20
224.389175111221
  0
LWPOLYLINE
  5
911
330
1F
100
AcDbEntity
  8
Sichtbare_Kanten_TC_020513_DIN_
  6
Continuous
 62
     7
100
AcDbPolyline
 90
       25
 70
     0
 43
0.0
 10
77.2495804571969
 20
247.234069043563
 10
77.2550354742867
 20
247.228035861419
 10
77.2608886504036
 20
247.221044236587
 10
77.2670946860177
 20
247.213175231384
 10
77.2736070895058
 20
247.204508716033
 10
77.2803805613381
 20
247.195126944946
 10
77.2873686098916
 20
247.185109788345
 10
77.2945247435433
 20
247.174538308548
 10
77.3018048548561
 20
247.163494759964
 10
77.3091612601143
 20
247.15206020491
 10
77.3165486597878
 20
247.140313321517
 10
77.3239193701607
 20
247.128338748382
 10
77.3312304758889
 20
247.116213971542
 10
77.3384342932564
 20
247.1040224375
 10
77.3454843306405
 20
247.091845208572
 10
77.3523352885109
 20
247.07976096289
 10
77.358940675245
 20
247.067853146957
 10
77.3652563834054
 20
247.056202823089
 10
77.3712335371834
 20
247.044889861511
 10
77.376828029142
 20
247.033995324539
 10
77.3819945597512
 20
247.02360027449
 10
77.3866842532021
 20
247.013786965774
 10
77.3908541941506
 20
247.004635268615
 10
77.3944566988808
 20
246.99622624533
 10
77.3974464678628
 20
246.988642150329
  0
LWPOLYLINE
  5
912
330
1F
100
AcDbEntity
  8
Sichtbare_Kanten_TC_020513_DIN_
  6
Continuous
 62
     7
100
AcDbPolyline
 90
       25
 70
     0
 43
0.0
 10
77.2785435461861
 20
246.988642150329
 10
77.2720847868783
 20
247.001757556366
 10
77.2647593760353
 20
247.015329533981
 10
77.2566400313241
 20
247.029284173416
 10
77.2477947020394
 20
247.043545180725
 10
77.238296105848
 20
247.058037454055
 10
77.2282145762307
 20
247.072685891555
 10
77.2176216387612
 20
247.087415391372
 10
77.2065864348275
 20
247.102152043747
 10
77.1951816820961
 20
247.116820746826
 10
77.1834765219552
 20
247.131344014572
 10
77.1715424799782
 20
247.145649129318
 10
77.1594510817391
 20
247.159659797119
 10
77.1472714686257
 20
247.173300916122
 10
77.1350751662117
 20
247.186498576568
 10
77.122933700071
 20
247.199176484512
 10
77.1109174036843
 20
247.211259538101
 10
77.0990966105324
 20
247.222672635482
 10
77.0875428461892
 20
247.233341866897
 10
77.0763252520424
 20
247.243192130493
 10
77.0655177378518
 20
247.252145940231
 10
77.0551882529122
 20
247.260130578445
 10
77.0454083227974
 20
247.26706975119
 10
77.0362494730813
 20
247.272889548706
 10
77.0277820372445
 20
247.277513677047
  0
LWPOLYLINE
  5
913
330
1F
100
AcDbEntity
  8
Sichtbare_Kanten_TC_020513_DIN_
  6
Continuous
 62
     7
100
AcDbPolyline
 90
       25
 70
     0
 43
0.0
 10
77.2495804570411
 20
89.5810865591412
 10
77.2550354741309
 20
89.575053376997
 10
77.2608886502478
 20
89.5680617521648
 10
77.2670946858619
 20
89.5601927469616
 10
77.27360708935
 20
89.5515262316112
 10
77.2803805611823
 20
89.5421444605236
 10
77.2873686097358
 20
89.5321273039226
 10
77.2945247433875
 20
89.5215558241253
 10
77.3018048547004
 20
89.5105122755413
 10
77.3091612599585
 20
89.4990777204876
 10
77.316548659632
 20
89.4873308370952
 10
77.3239193700049
 20
89.4753562639599
 10
77.3312304757331
 20
89.4632314871197
 10
77.3384342931006
 20
89.4510399530773
 10
77.3454843304847
 20
89.4388627241497
 10
77.3523352883551
 20
89.4267784784679
 10
77.3589406750891
 20
89.4148706625347
 10
77.3652563832495
 20
89.4032203386669
 10
77.3712335370276
 20
89.3919073770885
 10
77.3768280289863
 20
89.3810128401165
 10
77.3819945595954
 20
89.3706177900677
 10
77.3866842530463
 20
89.3608044813518
 10
77.3908541939948
 20
89.351652784193
 10
77.394456698725
 20
89.3432437609081
 10
77.397446467707
 20
89.3356596659069
  0
LWPOLYLINE
  5
914
330
1F
100
AcDbEntity
  8
Sichtbare_Kanten_TC_020513_DIN_
  6
Continuous
 62
     7
100
AcDbPolyline
 90
       25
 70
     0
 43
0.0
 10
77.2785435460303
 20
89.3356596659069
 10
77.2720847867224
 20
89.3487750719433
 10
77.2647593758796
 20
89.3623470495586
 10
77.2566400311682
 20
89.3763016889934
 10
77.2477947018836
 20
89.3905626963024
 10
77.2382961056922
 20
89.4050549696331
 10
77.2282145760749
 20
89.4197034071331
 10
77.2176216386054
 20
89.43443290695
 10
77.2065864346717
 20
89.4491695593242
 10
77.1951816819404
 20
89.4638382624035
 10
77.1834765217994
 20
89.4783615301495
 10
77.1715424798224
 20
89.4926666448955
 10
77.1594510815833
 20
89.5066773126964
 10
77.1472714684699
 20
89.5203184316997
 10
77.135075166056
 20
89.5335160921459
 10
77.1229336999152
 20
89.5461940000896
 10
77.1109174035285
 20
89.5582770536785
 10
77.0990966103766
 20
89.5696901510601
 10
77.0875428460334
 20
89.5803593824749
 10
77.0763252518866
 20
89.5902096460705
 10
77.065517737696
 20
89.5991634558086
 10
77.0551882527564
 20
89.6071480940227
 10
77.0454083226416
 20
89.6140872667675
 10
77.0362494729255
 20
89.6199070642834
 10
77.0277820370887
 20
89.624531192625
  0
LWPOLYLINE
  5
915
330
1F
100
AcDbEntity
  8
Sichtbare_Kanten_TC_020513_DIN_
  6
Continuous
 62
     7
100
AcDbPolyline
 90
       25
 70
     0
 43
0.0
 10
77.2495804570411
 20
111.692747993315
 10
77.2550354741309
 20
111.686714811171
 10
77.2608886502478
 20
111.679724378431
 10
77.2670946858619
 20
111.671854181135
 10
77.27360708935
 20
111.663187665785
 10
77.2803805611823
 20
111.653805894697
 10
77.2873686097358
 20
111.643788738096
 10
77.2945247433875
 20
111.633217258299
 10
77.3018048547004
 20
111.622173709715
 10
77.3091612599585
 20
111.610739154661
 10
77.316548659632
 20
111.598993463362
 10
77.3239193700049
 20
111.587017698133
 10
77.3312304757331
 20
111.574892921293
 10
77.3384342931006
 20
111.562701387251
 10
77.3454843304847
 20
111.550524158323
 10
77.3523352883551
 20
111.538439912641
 10
77.3589406750891
 20
111.526533288801
 10
77.3652563832495
 20
111.514881772841
 10
77.3712335370276
 20
111.503568811262
 10
77.3768280289863
 20
111.49267427429
 10
77.3819945595954
 20
111.482279224241
 10
77.3866842530463
 20
111.472465915525
 10
77.3908541939948
 20
111.463314218367
 10
77.394456698725
 20
111.454905195082
 10
77.397446467707
 20
111.44732110008
  0
LWPOLYLINE
  5
916
330
1F
100
AcDbEntity
  8
Sichtbare_Kanten_TC_020513_DIN_
  6
Continuous
 62
     7
100
AcDbPolyline
 90
       25
 70
     0
 43
0.0
 10
77.2785435460303
 20
111.44732110008
 10
77.2720847867224
 20
111.460436506117
 10
77.2647593758796
 20
111.474008483732
 10
77.2566400311682
 20
111.487963123167
 10
77.2477947018836
 20
111.502224130476
 10
77.2382961056922
 20
111.516716403807
 10
77.2282145760749
 20
111.531364841307
 10
77.2176216386054
 20
111.546095533216
 10
77.2065864346717
 20
111.560830993498
 10
77.1951816819404
 20
111.575499696577
 10
77.1834765217994
 20
111.590022964323
 10
77.1715424798224
 20
111.604328079069
 10
77.1594510815833
 20
111.61833874687
 10
77.1472714684699
 20
111.631979865873
 10
77.135075166056
 20
111.64517752632
 10
77.1229336999152
 20
111.657855434263
 10
77.1109174035285
 20
111.669938487852
 10
77.0990966103766
 20
111.681352777327
 10
77.0875428460334
 20
111.692020816648
 10
77.0763252518866
 20
111.701871080244
 10
77.065517737696
 20
111.710824889982
 10
77.0551882527564
 20
111.718809528196
 10
77.0454083226416
 20
111.725749893034
 10
77.0362494729255
 20
111.731568498457
 10
77.0277820370887
 20
111.736192626799
  0
LWPOLYLINE
  5
917
330
1F
100
AcDbEntity
  8
Sichtbare_Kanten_TC_020513_DIN_
  6
Continuous
 62
     7
100
AcDbPolyline
 90
       25
 70
     0
 43
0.0
 10
78.0315928004477
 20
88.4492265413647
 10
78.0279140017722
 20
88.4491299818401
 10
78.0242459319327
 20
88.4490942190533
 10
78.0205885909293
 20
88.4491192530041
 10
78.0169413827155
 20
88.4492050836925
 10
78.0133049033378
 20
88.4493517111187
 10
78.0096791527961
 20
88.4495603273754
 10
78.0060641310904
 20
88.4498285482769
 10
78.0024598382209
 20
88.450157565916
 10
77.9988656781409
 20
88.4505485723858
 10
77.995282246897
 20
88.4509991835003
 10
77.9917095444892
 20
88.4515117834454
 10
77.9881475709174
 20
88.4520851801281
 10
77.9845957301352
 20
88.4527181814556
 10
77.9810546181891
 20
88.4534131716137
 10
77.9775242350791
 20
88.4541689585094
 10
77.9740045808051
 20
88.4549855421429
 10
77.9704950593207
 20
88.4558629225139
 10
77.9669962666724
 20
88.4568010996227
 10
77.9635082028602
 20
88.4578000734691
 10
77.9600308678839
 20
88.4588598440533
 10
77.9565636656974
 20
88.459980411375
 10
77.9531077883933
 20
88.4611617754345
 10
77.9496620438788
 20
88.4624051283245
 10
77.946226432154
 20
88.4637080858593
  0
LWPOLYLINE
  5
918
330
1F
100
AcDbEntity
  8
Sichtbare_Kanten_TC_020513_DIN_
  6
Continuous
 62
     7
100
AcDbPolyline
 90
       25
 70
     0
 43
0.0
 10
77.946226432154
 20
88.4637080858593
 10
77.9374293826316
 20
88.467293901289
 10
77.9280273459647
 20
88.4717368315105
 10
77.9180674098227
 20
88.4769975374584
 10
77.9075948737357
 20
88.4830342958813
 10
77.8966562293265
 20
88.4898089598064
 10
77.8852985642646
 20
88.4972809980755
 10
77.8735677741263
 20
88.5054086874371
 10
77.8615103505347
 20
88.5141538809185
 10
77.8491715930198
 20
88.5234760473614
 10
77.8365991852973
 20
88.5333358477001
 10
77.8238390229438
 20
88.5436915586834
 10
77.8109370015357
 20
88.5545050333385
 10
77.797939612696
 20
88.5657345484142
 10
77.7848933480475
 20
88.5773407648449
 10
77.7718446992133
 20
88.589284343565
 10
77.7588395617698
 20
88.601524753416
 10
77.7459244273398
 20
88.6140214632397
 10
77.7331457875464
 20
88.6267339418773
 10
77.7205489419196
 20
88.6396252344494
 10
77.7081815741752
 20
88.6526512335186
 10
77.6960895798896
 20
88.6657749842052
 10
77.6843188546393
 20
88.678954763258
 10
77.6729164860938
 20
88.6921512316112
 10
77.661927773783
 20
88.7053238581066
  0
LWPOLYLINE
  5
919
330
1F
100
AcDbEntity
  8
Sichtbare_Kanten_TC_020513_DIN_
  6
Continuous
 62
     7
100
AcDbPolyline
 90
       25
 70
     0
 43
0.0
 10
77.661927773783
 20
88.7053238581066
 10
77.6450560830329
 20
88.7253629396801
 10
77.6280085585807
 20
88.7448715399151
 10
77.6108310960029
 20
88.7638234327679
 10
77.5935701869223
 20
88.782188815916
 10
77.5762723229621
 20
88.7999390791302
 10
77.558983995745
 20
88.8170456121807
 10
77.5417511008475
 20
88.8334786127453
 10
77.5246201298926
 20
88.8492094705944
 10
77.5076363824103
 20
88.8642107675915
 10
77.4908481381629
 20
88.8784527014141
 10
77.4743006966803
 20
88.8919054697399
 10
77.4580405495856
 20
88.9045428465252
 10
77.4421141885016
 20
88.9163338373547
 10
77.4265669129584
 20
88.9272510240917
 10
77.4114452145789
 20
88.937264604414
 10
77.3967967770789
 20
88.9463471601849
 10
77.3826668999885
 20
88.9544688890819
 10
77.3691020749305
 20
88.9615999887829
 10
77.3561487935279
 20
88.9677142332439
 10
77.3438523553107
 20
88.9727806280498
 10
77.3322604439948
 20
88.976771755064
 10
77.321419551203
 20
88.979657811964
 10
77.3113737843726
 20
88.9814101885204
 10
77.3021720193122
 20
88.9820002745037
  0
LWPOLYLINE
  5
91A
330
1F
100
AcDbEntity
  8
Sichtbare_Kanten_TC_020513_DIN_
  6
Continuous
 62
     7
100
AcDbPolyline
 90
       25
 70
     0
 43
0.0
 10
77.3021720193122
 20
88.9820002745037
 10
77.2928951523993
 20
88.9814662168865
 10
77.2833965562079
 20
88.979897422636
 10
77.2737298749182
 20
88.9773499201183
 10
77.2639487527106
 20
88.9738773535137
 10
77.254110410044
 20
88.9695345590954
 10
77.2442684910987
 20
88.9643751810436
 10
77.2344790242408
 20
88.9584528635387
 10
77.2247944615577
 20
88.9518236349468
 10
77.2152720235083
 20
88.9445399473553
 10
77.205966546366
 20
88.9366578291302
 10
77.196931674311
 20
88.9282297323589
 10
77.1882234357093
 20
88.9193104933147
 10
77.1798966668342
 20
88.9099549482708
 10
77.1720050118659
 20
88.9002167414074
 10
77.1646044991706
 20
88.8901507089977
 10
77.1577499650214
 20
88.8798104952221
 10
77.1514962456916
 20
88.8692509363537
 10
77.1458981774543
 20
88.8585256765728
 10
77.1410105965827
 20
88.8476883600597
 10
77.13688833935
 20
88.8367950151806
 10
77.1335862420295
 20
88.8258992861156
 10
77.1311603329871
 20
88.8150548170452
 10
77.1296642564032
 20
88.8043164442425
 10
77.129154040644
 20
88.7937390039806
  0
LWPOLYLINE
  5
91B
330
1F
100
AcDbEntity
  8
Sichtbare_Kanten_TC_020513_DIN_
  6
Continuous
 62
     7
100
AcDbPolyline
 90
       25
 70
     0
 43
0.0
 10
77.129154040644
 20
88.7937390039806
 10
77.1297000191901
 20
88.7826048563366
 10
77.1313069604133
 20
88.7713407705669
 10
77.1339212201331
 20
88.7600015829449
 10
77.1374915383551
 20
88.7486385534649
 10
77.141965462992
 20
88.7373065184002
 10
77.1472917340491
 20
88.7260579298382
 10
77.1534167073462
 20
88.7149464319591
 10
77.1602903149817
 20
88.7040256689434
 10
77.1678601048682
 20
88.6933480928783
 10
77.1760736249182
 20
88.6829661558513
 10
77.1848796151374
 20
88.6729358862285
 10
77.1942256234381
 20
88.6633085440044
 10
77.2040603898261
 20
88.6541365812664
 10
77.2143314622138
 20
88.6454748342876
 10
77.2249863885138
 20
88.6373769472485
 10
77.2359739087317
 20
88.6298953722362
 10
77.2472415707801
 20
88.6230825613384
 10
77.2587381146644
 20
88.6169921587353
 10
77.2704122803901
 20
88.6116790007
 10
77.2822104237769
 20
88.6071943472271
 10
77.2940812848304
 20
88.6035930345898
 10
77.305972411463
 20
88.6009275148754
 10
77.3178337357734
 20
88.5992514322643
 10
77.3296104214881
 20
88.5986172388439
  0
LWPOLYLINE
  5
91C
330
1F
100
AcDbEntity
  8
Sichtbare_Kanten_TC_020513_DIN_
  6
Continuous
 62
     7
100
AcDbPolyline
 90
       25
 70
     0
 43
0.0
 10
77.3166535638068
 20
88.4720920751934
 10
77.2990034363959
 20
88.4745120237713
 10
77.2813485406135
 20
88.4784805010204
 10
77.2637568257544
 20
88.4839176367168
 10
77.246295049021
 20
88.4907447527294
 10
77.2290299676154
 20
88.4988819788341
 10
77.2120307229255
 20
88.508249444807
 10
77.1953616879676
 20
88.5187672804241
 10
77.1790908120368
 20
88.5303579996471
 10
77.163287236521
 20
88.5429405401592
 10
77.1480153344367
 20
88.5564362238293
 10
77.1333442471717
 20
88.5707663725262
 10
77.1193407319281
 20
88.585849923933
 10
77.1060703538154
 20
88.6016081999187
 10
77.0936022542212
 20
88.6179625223522
 10
77.0820031903479
 20
88.6348330210094
 10
77.0713399193976
 20
88.6521398256664
 10
77.0616791985724
 20
88.669804258192
 10
77.0530889771674
 20
88.6877464483623
 10
77.0456360123847
 20
88.7058865259533
 10
77.0393870614264
 20
88.7241458128338
 10
77.0344100735877
 20
88.7424456308727
 10
77.0307729981635
 20
88.7607049177532
 10
77.0285402081702
 20
88.7788449953441
 10
77.0277820370887
 20
88.7967871855144
  0
LWPOLYLINE
  5
91D
330
1F
100
AcDbEntity
  8
Sichtbare_Kanten_TC_020513_DIN_
  6
Continuous
 62
     7
100
AcDbPolyline
 90
       25
 70
     0
 43
0.0
 10
77.0277820370887
 20
88.7967871855144
 10
77.0285962365363
 20
88.8149034212475
 10
77.030983998606
 20
88.8331829737072
 10
77.0348571084235
 20
88.8515423963909
 10
77.0401285432074
 20
88.8698982427959
 10
77.0467112801764
 20
88.8881682585125
 10
77.0545182965491
 20
88.9062701891308
 10
77.0634625695441
 20
88.9241182039623
 10
77.0734570763801
 20
88.9416324327831
 10
77.0844147942755
 20
88.9587282369976
 10
77.0962487004493
 20
88.975323362196
 10
77.1088729642127
 20
88.9913331697826
 10
77.1221981785987
 20
89.0066765974407
 10
77.1361397050116
 20
89.0212701986675
 10
77.1506093285773
 20
89.0350293348675
 10
77.1655200265143
 20
89.0478729437237
 10
77.1807847760413
 20
89.0597163866405
 10
77.1963177464698
 20
89.0704774092083
 10
77.2120307229255
 20
89.0800737570171
 10
77.227836682627
 20
89.0884219835644
 10
77.243648602793
 20
89.0954374502544
 10
77.259380652735
 20
89.1010390947704
 10
77.2749446175788
 20
89.1051422785168
 10
77.2902534745429
 20
89.1076659391766
 10
77.305220200846
 20
89.1085254381542
  0
LWPOLYLINE
  5
91E
330
1F
100
AcDbEntity
  8
Sichtbare_Kanten_TC_020513_DIN_
  6
Continuous
 62
     7
100
AcDbPolyline
 90
       25
 70
     0
 43
0.0
 10
77.305220200846
 20
89.1085254381542
 10
77.3158226750586
 20
89.1080128382091
 10
77.3275099538062
 20
89.1064571569805
 10
77.3402081273291
 20
89.1038369367962
 10
77.353843285868
 20
89.1001342962627
 10
77.3683450959418
 20
89.0953373144512
 10
77.3836432240699
 20
89.0894376467113
 10
77.3996673367713
 20
89.0824317167644
 10
77.4163506768439
 20
89.0743207167034
 10
77.4336241028998
 20
89.0651106069927
 10
77.4514232419227
 20
89.0548133085613
 10
77.4696825288031
 20
89.043443126524
 10
77.4883375905249
 20
89.031019134367
 10
77.5073264382575
 20
89.017568750227
 10
77.5265882752631
 20
89.0031193922405
 10
77.5460599206183
 20
88.9877068231945
 10
77.5656841538642
 20
88.9713679979687
 10
77.5854019664023
 20
88.9541470240002
 10
77.6051561377738
 20
88.9360939691906
 10
77.6248906396125
 20
88.9172589014416
 10
77.6445500395987
 20
88.8977014253979
 10
77.6640812895987
 20
88.8774823377971
 10
77.6834307454322
 20
88.8566707800274
 10
77.7025465510581
 20
88.8353358934765
 10
77.7213792346213
 20
88.8135551641826
  0
LWPOLYLINE
  5
91F
330
1F
100
AcDbEntity
  8
Sichtbare_Kanten_TC_020513_DIN_
  6
Continuous
 62
     7
100
AcDbPolyline
 90
       25
 70
     0
 43
0.0
 10
77.7213792346213
 20
88.8135551641826
 10
77.7327720664237
 20
88.7999903391247
 10
77.743891908953
 20
88.7869226168041
 10
77.754735781977
 20
88.7743508051281
 10
77.7653007052634
 20
88.762270135725
 10
77.7755836985801
 20
88.750679416502
 10
77.7855823777411
 20
88.7395750711803
 10
77.7952925704215
 20
88.7289559076672
 10
77.8047124884818
 20
88.7188171575908
 10
77.8138385556433
 20
88.7091588209514
 10
77.8226677916739
 20
88.6999761293773
 10
77.8311972163413
 20
88.6912678907757
 10
77.8394238494132
 20
88.6830293367748
 10
77.8473453067038
 20
88.6752604673748
 10
77.8549580119346
 20
88.667956514204
 10
77.8622583888266
 20
88.6611162851696
 10
77.8692452452872
 20
88.6547373960857
 10
77.8759138129447
 20
88.6488150785808
 10
77.8822617076133
 20
88.6433481405621
 10
77.8882865451072
 20
88.6383341978435
 10
77.8939847491477
 20
88.6337696741466
 10
77.8993533395026
 20
88.6296521852856
 10
77.9043893359397
 20
88.6259793470745
 10
77.9090897582267
 20
88.6227487753277
 10
77.9134522221778
 20
88.6199580858593
  0
LWPOLYLINE
  5
920
330
1F
100
AcDbEntity
  8
Sichtbare_Kanten_TC_020513_DIN_
  6
Continuous
 62
     7
100
AcDbPolyline
 90
       25
 70
     0
 43
0.0
 10
98.0315922044013
 20
88.4492265413647
 10
98.0279134057258
 20
88.4491299818401
 10
98.0242453358863
 20
88.4490942190533
 10
98.0205879948828
 20
88.4491192530041
 10
98.0169413827155
 20
88.4492050836925
 10
98.0133054993842
 20
88.4493517111187
 10
98.0096791527961
 20
88.4495603273754
 10
98.0060647271369
 20
88.4498285482769
 10
98.0024598382209
 20
88.450157565916
 10
97.9988656781409
 20
88.4505485723858
 10
97.995282246897
 20
88.4509991835003
 10
97.9917095444892
 20
88.4515117834454
 10
97.9881475709174
 20
88.4520851801281
 10
97.9845963261817
 20
88.4527181814556
 10
97.9810546181891
 20
88.4534131716137
 10
97.9775248311255
 20
88.4541689585094
 10
97.9740045808051
 20
88.4549855421429
 10
97.9704950593207
 20
88.4558629225139
 10
97.9669962666724
 20
88.4568010996227
 10
97.9635082028602
 20
88.4578000734691
 10
97.9600308678839
 20
88.4588598440533
 10
97.9565642617438
 20
88.459980411375
 10
97.9531071923468
 20
88.4611617754345
 10
97.9496620438788
 20
88.4624051283245
 10
97.946226432154
 20
88.4637080858593
  0
LWPOLYLINE
  5
921
330
1F
100
AcDbEntity
  8
Sichtbare_Kanten_TC_020513_DIN_
  6
Continuous
 62
     7
100
AcDbPolyline
 90
       25
 70
     0
 43
0.0
 10
97.946226432154
 20
88.4637080858593
 10
97.937429978678
 20
88.467293901289
 10
97.9280279420112
 20
88.4717368315105
 10
97.9180668137763
 20
88.4769975374584
 10
97.9075942776893
 20
88.4830342958813
 10
97.896656825373
 20
88.4898089598064
 10
97.8852985642646
 20
88.4972809980755
 10
97.8735683701728
 20
88.5054086874371
 10
97.8615103505347
 20
88.5141538809185
 10
97.8491721890662
 20
88.5234760473614
 10
97.8365991852973
 20
88.5333358477001
 10
97.8238390229438
 20
88.5436915586834
 10
97.8109370015357
 20
88.5545050333385
 10
97.797939612696
 20
88.5657345484142
 10
97.7848933480475
 20
88.5773407648449
 10
97.7718446992133
 20
88.589284343565
 10
97.7588401578162
 20
88.601524753416
 10
97.7459238312934
 20
88.6140214632397
 10
97.7331457875464
 20
88.6267339418773
 10
97.7205489419196
 20
88.6396252344494
 10
97.7081821702216
 20
88.6526512335186
 10
97.6960895798896
 20
88.6657749842052
 10
97.6843188546393
 20
88.678954763258
 10
97.6729164860938
 20
88.6921512316112
 10
97.661927773783
 20
88.7053238581066
  0
LWPOLYLINE
  5
922
330
1F
100
AcDbEntity
  8
Sichtbare_Kanten_TC_020513_DIN_
  6
Continuous
 62
     7
100
AcDbPolyline
 90
       25
 70
     0
 43
0.0
 10
97.661927773783
 20
88.7053238581066
 10
97.6450560830329
 20
88.7253629396801
 10
97.6280079625342
 20
88.7448715399151
 10
97.6108310960029
 20
88.7638234327679
 10
97.5935707829688
 20
88.782188815916
 10
97.5762723229621
 20
88.7999390791302
 10
97.5589833996985
 20
88.8170456121807
 10
97.5417505048011
 20
88.8334786127453
 10
97.5246201298926
 20
88.8492094705944
 10
97.5076369784568
 20
88.8642107675915
 10
97.4908487342093
 20
88.8784527014141
 10
97.4743012927268
 20
88.8919054697399
 10
97.4580405495856
 20
88.9045428465252
 10
97.4421135924552
 20
88.9163338373547
 10
97.4265669129584
 20
88.9272510240917
 10
97.4114458106254
 20
88.937264604414
 10
97.3967967770789
 20
88.9463471601849
 10
97.3826668999885
 20
88.9544688890819
 10
97.3691020749305
 20
88.9615999887829
 10
97.3561481974814
 20
88.9677142332439
 10
97.3438523553107
 20
88.9727806280498
 10
97.3322604439948
 20
88.976771755064
 10
97.3214189551566
 20
88.979657811964
 10
97.3113737843726
 20
88.9814101885204
 10
97.3021720193122
 20
88.9820002745037
  0
LWPOLYLINE
  5
923
330
1F
100
AcDbEntity
  8
Sichtbare_Kanten_TC_020513_DIN_
  6
Continuous
 62
     7
100
AcDbPolyline
 90
       25
 70
     0
 43
0.0
 10
97.3021720193122
 20
88.9820002745037
 10
97.2928957484458
 20
88.9814662168865
 10
97.2833965562079
 20
88.979897422636
 10
97.2737292788718
 20
88.9773499201183
 10
97.2639493487571
 20
88.9738773535137
 10
97.254110410044
 20
88.9695345590954
 10
97.2442684910987
 20
88.9643751810436
 10
97.2344784281943
 20
88.9584528635387
 10
97.2247950576041
 20
88.9518236349468
 10
97.2152726195548
 20
88.9445399473553
 10
97.205966546366
 20
88.9366578291302
 10
97.1969322703574
 20
88.9282297323589
 10
97.1882234357093
 20
88.9193104933147
 10
97.1798960707877
 20
88.9099549482708
 10
97.1720050118659
 20
88.9002167414074
 10
97.1646044991706
 20
88.8901507089977
 10
97.1577499650214
 20
88.8798104952221
 10
97.1514962456916
 20
88.8692509363537
 10
97.1458981774543
 20
88.8585256765728
 10
97.1410105965827
 20
88.8476883600597
 10
97.13688833935
 20
88.8367950151806
 10
97.1335868380759
 20
88.8258992861156
 10
97.1311603329871
 20
88.8150548170452
 10
97.1296642564032
 20
88.8043164442425
 10
97.1291534445975
 20
88.7937390039806
  0
LWPOLYLINE
  5
924
330
1F
100
AcDbEntity
  8
Sichtbare_Kanten_TC_020513_DIN_
  6
Continuous
 62
     7
100
AcDbPolyline
 90
       25
 70
     0
 43
0.0
 10
97.1291534445975
 20
88.7937390039806
 10
97.1297006152365
 20
88.7826048563366
 10
97.1313075564597
 20
88.7713407705669
 10
97.1339218161796
 20
88.7600015829449
 10
97.1374915383551
 20
88.7486385534649
 10
97.141965462992
 20
88.7373065184002
 10
97.1472911380027
 20
88.7260579298382
 10
97.1534167073462
 20
88.7149464319591
 10
97.1602903149817
 20
88.7040256689434
 10
97.1678601048682
 20
88.6933480928783
 10
97.1760742209647
 20
88.6829661558513
 10
97.1848796151374
 20
88.6729358862285
 10
97.1942256234381
 20
88.6633085440044
 10
97.2040603898261
 20
88.6541365812664
 10
97.2143308661673
 20
88.6454748342876
 10
97.2249863885138
 20
88.6373769472485
 10
97.2359739087317
 20
88.6298953722362
 10
97.2472415707801
 20
88.6230825613384
 10
97.2587387107108
 20
88.6169921587353
 10
97.2704116843436
 20
88.6116790007
 10
97.2822098277305
 20
88.6071943472271
 10
97.2940806887839
 20
88.6035930345898
 10
97.305972411463
 20
88.6009275148754
 10
97.3178331397269
 20
88.5992514322643
 10
97.3296110175345
 20
88.5986172388439
  0
LWPOLYLINE
  5
925
330
1F
100
AcDbEntity
  8
Sichtbare_Kanten_TC_020513_DIN_
  6
Continuous
 62
     7
100
AcDbPolyline
 90
       25
 70
     0
 43
0.0
 10
97.3166535638068
 20
88.4720920751934
 10
97.2990034363959
 20
88.4745120237713
 10
97.2813485406135
 20
88.4784805010204
 10
97.2637568257544
 20
88.4839176367168
 10
97.246295049021
 20
88.4907447527294
 10
97.2290305636619
 20
88.4988819788341
 10
97.212030126879
 20
88.508249444807
 10
97.1953616879676
 20
88.5187672804241
 10
97.1790914080832
 20
88.5303579996471
 10
97.163287236521
 20
88.5429405401592
 10
97.1480153344367
 20
88.5564362238293
 10
97.1333442471717
 20
88.5707663725262
 10
97.1193401358817
 20
88.585849923933
 10
97.1060703538154
 20
88.6016081999187
 10
97.0936022542212
 20
88.6179625223522
 10
97.0820031903479
 20
88.6348330210094
 10
97.0713393233512
 20
88.6521398256664
 10
97.0616791985724
 20
88.669804258192
 10
97.0530889771674
 20
88.6877464483623
 10
97.0456360123847
 20
88.7058865259533
 10
97.0393876574729
 20
88.7241458128338
 10
97.0344106696341
 20
88.7424456308727
 10
97.0307724021171
 20
88.7607049177532
 10
97.0285402081702
 20
88.7788449953441
 10
97.0277814410422
 20
88.7967871855144
  0
LWPOLYLINE
  5
926
330
1F
100
AcDbEntity
  8
Sichtbare_Kanten_TC_020513_DIN_
  6
Continuous
 62
     7
100
AcDbPolyline
 90
       25
 70
     0
 43
0.0
 10
97.0277814410422
 20
88.7967871855144
 10
97.0285968325827
 20
88.8149034212475
 10
97.030983998606
 20
88.8331829737072
 10
97.0348571084235
 20
88.8515423963909
 10
97.0401285432074
 20
88.8698982427959
 10
97.0467112801764
 20
88.8881682585125
 10
97.0545177005027
 20
88.9062701891308
 10
97.0634619734977
 20
88.9241182039623
 10
97.0734570763801
 20
88.9416324327831
 10
97.0844147942755
 20
88.9587282369976
 10
97.0962487004493
 20
88.975323362196
 10
97.1088723681662
 20
88.9913331697826
 10
97.1221981785987
 20
89.0066765974407
 10
97.1361397050116
 20
89.0212701986675
 10
97.1506093285773
 20
89.0350293348675
 10
97.1655200265143
 20
89.0478729437237
 10
97.1807853720878
 20
89.0597163866405
 10
97.1963177464698
 20
89.0704774092083
 10
97.212030126879
 20
89.0800737570171
 10
97.2278360865806
 20
89.0884219835644
 10
97.243648602793
 20
89.0954374502544
 10
97.2593800566886
 20
89.1010390947704
 10
97.2749440215323
 20
89.1051422785168
 10
97.2902534745429
 20
89.1076659391766
 10
97.3052207968924
 20
89.1085254381542
  0
LWPOLYLINE
  5
927
330
1F
100
AcDbEntity
  8
Sichtbare_Kanten_TC_020513_DIN_
  6
Continuous
 62
     7
100
AcDbPolyline
 90
       25
 70
     0
 43
0.0
 10
97.3052207968924
 20
89.1085254381542
 10
97.3158232711051
 20
89.1080128382091
 10
97.3275099538062
 20
89.1064571569805
 10
97.3402081273291
 20
89.1038369367962
 10
97.353843285868
 20
89.1001342962627
 10
97.3683456919883
 20
89.0953373144512
 10
97.3836432240699
 20
89.0894376467113
 10
97.3996679328177
 20
89.0824317167644
 10
97.4163506768439
 20
89.0743207167034
 10
97.4336246989463
 20
89.0651106069927
 10
97.4514232419227
 20
89.0548133085613
 10
97.4696825288031
 20
89.043443126524
 10
97.4883381865714
 20
89.031019134367
 10
97.5073270343039
 20
89.017568750227
 10
97.5265876792167
 20
89.0031193922405
 10
97.5460599206183
 20
88.9877068231945
 10
97.5656841538642
 20
88.9713679979687
 10
97.5854025624488
 20
88.9541470240002
 10
97.6051567338202
 20
88.9360939691906
 10
97.6248906396125
 20
88.9172589014416
 10
97.6445506356452
 20
88.8977014253979
 10
97.6640806935523
 20
88.8774823377971
 10
97.6834307454322
 20
88.8566707800274
 10
97.7025471471045
 20
88.8353358934765
 10
97.7213786385749
 20
88.8135551641826
  0
LWPOLYLINE
  5
928
330
1F
100
AcDbEntity
  8
Sichtbare_Kanten_TC_020513_DIN_
  6
Continuous
 62
     7
100
AcDbPolyline
 90
       25
 70
     0
 43
0.0
 10
97.7213786385749
 20
88.8135551641826
 10
97.7327714703772
 20
88.7999903391247
 10
97.7438913129065
 20
88.7869226168041
 10
97.754735781977
 20
88.7743508051281
 10
97.765300109217
 20
88.762270135725
 10
97.7755842946265
 20
88.750679416502
 10
97.7855823777411
 20
88.7395750711803
 10
97.7952931664679
 20
88.7289559076672
 10
97.8047118924353
 20
88.7188171575908
 10
97.8138385556433
 20
88.7091588209514
 10
97.8226671956275
 20
88.6999761293773
 10
97.8311978123877
 20
88.6912678907757
 10
97.8394244454596
 20
88.6830293367748
 10
97.8473447106574
 20
88.6752604673748
 10
97.8549574158881
 20
88.667956514204
 10
97.8622589848731
 20
88.6611162851696
 10
97.8692446492408
 20
88.6547373960857
 10
97.8759132168982
 20
88.6488150785808
 10
97.8822623036597
 20
88.6433481405621
 10
97.8882859490607
 20
88.6383341978435
 10
97.8939841531012
 20
88.6337696741466
 10
97.8993533395026
 20
88.6296521852856
 10
97.9043887398932
 20
88.6259793470745
 10
97.9090903542731
 20
88.6227487753277
 10
97.9134522221778
 20
88.6199580858593
  0
LWPOLYLINE
  5
929
330
1F
100
AcDbEntity
  8
Sichtbare_Kanten_TC_020513_DIN_
  6
Continuous
 62
     7
100
AcDbPolyline
 90
       25
 70
     0
 43
0.0
 10
147.279469107284
 20
171.484662492777
 10
147.278986309661
 20
171.497394864465
 10
147.277579640044
 20
171.510562573577
 10
147.275311087264
 20
171.523863350059
 10
147.272239063872
 20
171.536994849349
 10
147.268427942885
 20
171.549654726888
 10
147.263934944762
 20
171.561542947794
 10
147.258533571853
 20
171.573118914868
 10
147.252124880447
 20
171.58472848406
 10
147.244882916106
 20
171.596119676734
 10
147.236976956023
 20
171.607040141727
 10
147.228579853667
 20
171.617237825896
 10
147.219859694137
 20
171.626463879849
 10
147.210409973754
 20
171.635077570583
 10
147.200030420913
 20
171.643340189959
 10
147.188973759307
 20
171.65108700564
 10
147.177490328444
 20
171.658153508807
 10
147.165831659927
 20
171.664375041629
 10
147.154246901168
 20
171.669588063861
 10
147.142244909896
 20
171.67395909598
 10
147.129515741958
 20
171.677661885525
 10
147.11635026802
 20
171.680640031601
 10
147.103040550841
 20
171.682837133314
 10
147.089876268996
 20
171.684196715261
 10
147.077147101058
 20
171.68466252556
  0
LWPOLYLINE
  5
92A
330
1F
100
AcDbEntity
  8
Sichtbare_Kanten_TC_020513_DIN_
  6
Continuous
 62
     7
100
AcDbPolyline
 90
       25
 70
     0
 43
0.0
 10
142.040282820357
 20
171.68466252556
 10
142.027554844512
 20
171.684196715261
 10
142.014389370574
 20
171.682837133314
 10
142.001079653396
 20
171.680640031601
 10
141.987915371551
 20
171.677661885525
 10
141.975186203612
 20
171.67395909598
 10
141.963183020248
 20
171.669588063861
 10
141.951598261489
 20
171.664375041629
 10
141.939939592971
 20
171.658153508807
 10
141.928456162108
 20
171.65108700564
 10
141.917399500503
 20
171.643340189959
 10
141.907021139754
 20
171.635077570583
 10
141.897570227279
 20
171.626463879849
 10
141.888850067748
 20
171.617237825896
 10
141.880452965392
 20
171.607040141727
 10
141.872548197402
 20
171.596119676734
 10
141.865305040969
 20
171.58472848406
 10
141.858897541656
 20
171.573118914868
 10
141.853494976653
 20
171.561542947794
 10
141.849003170623
 20
171.549654726888
 10
141.845190857543
 20
171.536994849349
 10
141.842120026244
 20
171.523863350059
 10
141.839850281371
 20
171.510562573577
 10
141.838443611755
 20
171.497394864465
 10
141.837962006225
 20
171.484662492777
  0
LWPOLYLINE
  5
92B
330
1F
100
AcDbEntity
  8
Sichtbare_Kanten_TC_020513_DIN_
  6
Continuous
 62
     7
100
AcDbPolyline
 90
       25
 70
     0
 43
0.0
 10
174.279468392028
 20
171.484662492777
 10
174.278986786498
 20
171.497394864465
 10
174.277580116881
 20
171.510562573577
 10
174.275310372008
 20
171.523863350059
 10
174.27223954071
 20
171.536994849349
 10
174.26842722763
 20
171.549654726888
 10
174.263935421599
 20
171.561542947794
 10
174.258532856597
 20
171.573118914868
 10
174.252125357284
 20
171.58472848406
 10
174.244882200851
 20
171.596119676734
 10
174.23697743286
 20
171.607040141727
 10
174.228580330504
 20
171.617237825896
 10
174.219860170974
 20
171.626463879849
 10
174.210409258498
 20
171.635077570583
 10
174.20003089775
 20
171.643340189959
 10
174.188974236144
 20
171.65108700564
 10
174.177490805282
 20
171.658153508807
 10
174.165832136764
 20
171.664375041629
 10
174.154247378005
 20
171.669588063861
 10
174.14224419464
 20
171.67395909598
 10
174.129515026702
 20
171.677661885525
 10
174.116350744857
 20
171.680640031601
 10
174.103041027679
 20
171.682837133314
 10
174.089875553741
 20
171.684196715261
 10
174.077147577895
 20
171.68466252556
  0
LWPOLYLINE
  5
92C
330
1F
100
AcDbEntity
  8
Sichtbare_Kanten_TC_020513_DIN_
  6
Continuous
 62
     7
100
AcDbPolyline
 90
       25
 70
     0
 43
0.0
 10
169.040283297194
 20
171.68466252556
 10
169.027554129256
 20
171.684196715261
 10
169.014389847411
 20
171.682837133314
 10
169.001080130233
 20
171.680640031601
 10
168.987914656295
 20
171.677661885525
 10
168.975185488357
 20
171.67395909598
 10
168.963183497085
 20
171.669588063861
 10
168.951598738326
 20
171.664375041629
 10
168.939940069808
 20
171.658153508807
 10
168.928456638946
 20
171.65108700564
 10
168.91739997734
 20
171.643340189959
 10
168.907020424499
 20
171.635077570583
 10
168.897570704116
 20
171.626463879849
 10
168.888850544585
 20
171.617237825896
 10
168.880453442229
 20
171.607040141727
 10
168.872547482146
 20
171.596119676734
 10
168.865305517806
 20
171.58472848406
 10
168.8588968264
 20
171.573118914868
 10
168.85349545349
 20
171.561542947794
 10
168.849002455367
 20
171.549654726888
 10
168.84519133438
 20
171.536994849349
 10
168.842119310988
 20
171.523863350059
 10
168.839850758208
 20
171.510562573577
 10
168.838444088592
 20
171.497394864465
 10
168.837961290969
 20
171.484662492777
  0
MTEXT
  5
92D
330
1F
100
AcDbEntity
  8
1
 62
     7
100
AcDbMText
 10
32.59999999999999
 20
12.49999999999987
 30
0.0
 40
3.0
 41
0.0
 71
     4
 72
     1
  1
07/09/09
  7
CONVERTER_12
 73
     1
 44
1.32052821128451
  0
MTEXT
  5
92E
330
1F
100
AcDbEntity
  8
1
 62
     7
100
AcDbMText
 10
32.59999999999999
 20
7.49999999999987
 30
0.0
 40
3.0
 41
0.0
 71
     4
 72
     1
  1
T.Tedeschi
  7
CONVERTER_12
 73
     1
 44
1.32052821128451
  0
MTEXT
  5
92F
330
1F
100
AcDbEntity
  8
1
 62
     7
100
AcDbMText
 10
57.27630068874271
 20
12.5
 30
0.0
 40
4.5
 41
0.0
 71
     4
 72
     1
  1
CDDF 24\Pfemale insert, crimp, 24P 10A 250V
  7
CONVERTER_12
 73
     1
 44
0.90036014405762
  0
MTEXT
  5
930
330
1F
100
AcDbEntity
  8
1
 62
     7
100
AcDbMText
 10
169.6763006887427
 20
10.06063942075605
 30
0.0
 40
4.5
 41
0.0
 71
     5
 72
     1
  1
1:1
  7
CONVERTER_12
 73
     1
 44
1.32052821128451
  0
DIMENSION
  5
93C
330
1F
100
AcDbEntity
  8
1
100
AcDbDimension
  2
*D3
 10
127.177517506914
 20
113.9339825342501
 30
0.0
 11
123.677517506914
 21
100.4339825342499
 31
0.0
 70
    32
  1
<>
 71
     5
 42
-1.0
 53
90.0
  3
ME10_DIM_10
100
AcDbAlignedDimension
 13
113.5777815602514
 23
86.9339825342497
 33
0.0
 14
113.5777815602514
 24
113.93398253425
 34
0.0
 50
90.0
100
AcDbRotatedDimension
  0
DIMENSION
  5
947
330
1F
100
AcDbEntity
  8
1
100
AcDbDimension
  2
*D4
 10
127.177517506914
 20
252.586965018681
 30
0.0
 11
123.677517506914
 21
235.586965018681
 31
0.0
 70
    32
  1
<>
 71
     5
 42
-1.0
 53
90.0
  3
ME10_DIM_11
100
AcDbAlignedDimension
 13
109.077781560407
 23
218.586965018681
 33
0.0
 14
109.077781560407
 24
252.586965018681
 34
0.0
 50
90.0
100
AcDbRotatedDimension
  0
DIMENSION
  5
952
330
1F
100
AcDbEntity
  8
1
100
AcDbDimension
  2
*D5
 10
62.47778156040729
 20
263.575454474838
 30
0.0
 11
87.52778156040715
 21
267.075454474838
 31
0.0
 70
    32
  1
50
 71
     5
 42
-1.0
 53
0.00013888888889
  3
ME10_DIM_12
100
AcDbAlignedDimension
 13
112.577781560407
 23
249.086965018681
 33
0.0
 14
62.4777815604073
 24
249.086965018681
 34
0.0
100
AcDbRotatedDimension
  0
DIMENSION
  5
95F
330
1F
100
AcDbEntity
  8
1
100
AcDbDimension
  2
*D6
 10
185.850228309424
 20
168.784662489797
 30
0.0
 11
182.200228309424
 21
175.348172065413
 31
0.0
 70
    32
  1
<>
 71
     5
 42
-1.0
 53
90.0
  3
ME10_DIM_13
100
AcDbAlignedDimension
 13
175.058715199128
 23
167.584662489797
 33
0.0
 14
175.058715199129
 24
168.784662489797
 34
0.0
 50
90.0
100
AcDbRotatedDimension
  0
DIMENSION
  5
96A
330
1F
100
AcDbEntity
  8
1
100
AcDbDimension
  2
*D7
 10
185.850228309424
 20
167.584662489797
 30
0.0
 11
182.350228309424
 21
159.084662489797
 31
0.0
 70
    32
  1
<>
 71
     5
 42
-1.0
 53
90.0
  3
ME10_DIM_14
100
AcDbAlignedDimension
 13
168.558715199129
 23
150.584662489797
 33
0.0
 14
175.058715199128
 24
167.584662489797
 34
0.0
 50
90.0
100
AcDbRotatedDimension
  0
DIMENSION
  5
975
330
1F
100
AcDbEntity
  8
1
100
AcDbDimension
  2
*D8
 10
133.700251582439
 20
186.584662489797
 30
0.0
 11
130.200251582439
 21
168.584662489797
 31
0.0
 70
    32
  1
<>
 71
     5
 42
-1.0
 53
90.0
  3
ME10_DIM_15
100
AcDbAlignedDimension
 13
147.558715199129
 23
150.584662489797
 33
0.0
 14
148.058715199129
 24
186.584662489797
 34
0.0
 50
90.0
100
AcDbRotatedDimension
  0
DIMENSION
  5
980
330
1F
100
AcDbEntity
  8
1
100
AcDbDimension
  2
*D9
 10
65.5277815602515
 20
68.8890263871056
 30
0.0
 11
87.52778156025175
 21
72.3890263871056
 31
0.0
 70
    32
  1
<>
 71
     5
 42
-1.0
 53
0.00013888888889
  3
ME10_DIM_16
100
AcDbAlignedDimension
 13
109.527781560252
 23
82.88398253425025
 33
0.0
 14
65.5277815602515
 24
82.88398253425025
 34
0.0
100
AcDbRotatedDimension
  0
ENDSEC
  0
SECTION
  2
OBJECTS
  0
DICTIONARY
  5
C
330
0
100
AcDbDictionary
281
     1
  3
ACAD_GROUP
350
D
  3
ACAD_LAYOUT
350
1A
  3
ACAD_MATERIAL
350
3B
  3
ACAD_MLEADERSTYLE
350
983
  3
ACAD_MLINESTYLE
350
17
  3
ACAD_PLOTSETTINGS
350
19
  3
ACAD_PLOTSTYLENAME
350
E
  3
ACAD_VISUALSTYLE
350
2A
  3
AcDbVariableDictionary
350
981
  0
DICTIONARY
  5
D
102
{ACAD_REACTORS
330
C
102
}
330
C
100
AcDbDictionary
281
     1
  0
DICTIONARY
  5
1A
102
{ACAD_REACTORS
330
C
102
}
330
C
100
AcDbDictionary
281
     1
  3
Layout1
350
1E
  3
Layout2
350
26
  3
Model
350
22
  0
DICTIONARY
  5
3B
102
{ACAD_REACTORS
330
C
102
}
330
C
100
AcDbDictionary
281
     1
  3
ByBlock
350
3D
  3
ByLayer
350
3C
  3
Global
350
3E
  0
DICTIONARY
  5
983
102
{ACAD_REACTORS
330
C
102
}
330
C
100
AcDbDictionary
281
     1
  0
DICTIONARY
  5
17
102
{ACAD_REACTORS
330
C
102
}
330
C
100
AcDbDictionary
281
     1
  3
Standard
350
18
  0
DICTIONARY
  5
19
102
{ACAD_REACTORS
330
C
102
}
330
C
100
AcDbDictionary
281
     1
  0
ACDBDICTIONARYWDFLT
  5
E
102
{ACAD_REACTORS
330
C
102
}
330
C
100
AcDbDictionary
281
     1
  3
Normal
350
F
100
AcDbDictionaryWithDefault
340
F
  0
DICTIONARY
  5
2A
102
{ACAD_REACTORS
330
C
102
}
330
C
100
AcDbDictionary
281
     1
  3
2dWireframe
350
2F
  3
3D Hidden
350
31
  3
3dWireframe
350
30
  3
Basic
350
32
  3
Brighten
350
36
  3
ColorChange
350
3A
  3
Conceptual
350
34
  3
Dim
350
35
  3
Facepattern
350
39
  3
Flat
350
2B
  3
FlatWithEdges
350
2C
  3
Gouraud
350
2D
  3
GouraudWithEdges
350
2E
  3
Linepattern
350
38
  3
Realistic
350
33
  3
Thicken
350
37
  0
DICTIONARY
  5
981
102
{ACAD_REACTORS
330
C
102
}
330
C
100
AcDbDictionary
281
     1
  3
DIMASSOC
350
984
  3
HIDETEXT
350
985
  0
LAYOUT
  5
1E
102
{ACAD_REACTORS
330
1A
102
}
330
1A
100
AcDbPlotSettings
  1

  2
none_device
  4

  6

 40
0.0
 41
0.0
 42
0.0
 43
0.0
 44
0.0
 45
0.0
 46
0.0
 47
0.0
 48
0.0
 49
0.0
140
0.0
141
0.0
142
1.0
143
1.0
 70
   688
 72
     0
 73
     0
 74
     5
  7

 75
    16
147
1.0
148
0.0
149
0.0
100
AcDbLayout
  1
Layout1
 70
     1
 71
     1
 10
0.0
 20
0.0
 11
12.0
 21
9.0
 12
0.0
 22
0.0
 32
0.0
 14
1.00000000000000E+20
 24
1.00000000000000E+20
 34
1.00000000000000E+20
 15
-1.00000000000000E+20
 25
-1.00000000000000E+20
 35
-1.00000000000000E+20
146
0.0
 13
0.0
 23
0.0
 33
0.0
 16
1.0
 26
0.0
 36
0.0
 17
0.0
 27
1.0
 37
0.0
 76
     0
330
1B
  0
LAYOUT
  5
26
102
{ACAD_REACTORS
330
1A
102
}
330
1A
100
AcDbPlotSettings
  1

  2
none_device
  4

  6

 40
0.0
 41
0.0
 42
0.0
 43
0.0
 44
0.0
 45
0.0
 46
0.0
 47
0.0
 48
0.0
 49
0.0
140
0.0
141
0.0
142
1.0
143
1.0
 70
   688
 72
     0
 73
     0
 74
     5
  7

 75
    16
147
1.0
148
0.0
149
0.0
100
AcDbLayout
  1
Layout2
 70
     1
 71
     2
 10
0.0
 20
0.0
 11
0.0
 21
0.0
 12
0.0
 22
0.0
 32
0.0
 14
0.0
 24
0.0
 34
0.0
 15
0.0
 25
0.0
 35
0.0
146
0.0
 13
0.0
 23
0.0
 33
0.0
 16
1.0
 26
0.0
 36
0.0
 17
0.0
 27
1.0
 37
0.0
 76
     0
330
23
  0
LAYOUT
  5
22
102
{ACAD_REACTORS
330
1A
102
}
330
1A
100
AcDbPlotSettings
  1

  2
none_device
  4

  6

 40
0.0
 41
0.0
 42
0.0
 43
0.0
 44
0.0
 45
0.0
 46
0.0
 47
0.0
 48
0.0
 49
0.0
140
0.0
141
0.0
142
1.0
143
1.0
 70
  1712
 72
     0
 73
     0
 74
     0
  7

 75
     0
147
1.0
148
0.0
149
0.0
100
AcDbLayout
  1
Model
 70
     1
 71
     0
 10
0.0
 20
0.0
 11
12.0
 21
9.0
 12
0.0
 22
0.0
 32
0.0
 14
-0.00000000000011
 24
0.0
 34
0.0
 15
210.0
 25
297.0000000000001
 35
0.0
146
0.0
 13
0.0
 23
0.0
 33
0.0
 16
1.0
 26
0.0
 36
0.0
 17
0.0
 27
1.0
 37
0.0
 76
     0
330
1F
331
29
  0
MATERIAL
  5
3D
102
{ACAD_REACTORS
330
3B
102
}
102
{ACAD_XDICTIONARY
360
9A8
102
}
330
3B
100
AcDbMaterial
  1
ByBlock
  0
MATERIAL
  5
3C
102
{ACAD_REACTORS
330
3B
102
}
102
{ACAD_XDICTIONARY
360
9A6
102
}
330
3B
100
AcDbMaterial
  1
ByLayer
  0
MATERIAL
  5
3E
102
{ACAD_REACTORS
330
3B
102
}
102
{ACAD_XDICTIONARY
360
9AA
102
}
330
3B
100
AcDbMaterial
  1
Global
  0
MLINESTYLE
  5
18
102
{ACAD_REACTORS
330
17
102
}
330
17
100
AcDbMlineStyle
  2
Standard
 70
     0
  3

 62
   256
 51
90.0
 52
90.0
 71
     2
 49
0.5
 62
   256
  6
BYLAYER
 49
-0.5
 62
   256
  6
BYLAYER
  0
ACDBPLACEHOLDER
  5
F
102
{ACAD_REACTORS
330
E
102
}
330
E
  0
VISUALSTYLE
  5
2F
102
{ACAD_REACTORS
330
2A
102
}
102
{ACAD_XDICTIONARY
360
98E
102
}
330
2A
100
AcDbVisualStyle
  2
2dWireframe
 70
     4
 71
     0
 72
     2
 73
     0
 90
        0
 40
-0.6
 41
-30.0
 62
     5
 63
     7
 74
     1
 91
        4
 64
     7
 65
   257
 75
     1
175
     1
 42
1.0
 92
        0
 66
   257
 43
1.0
 76
     1
 77
     6
 78
     2
 67
     7
 79
     5
170
     0
171
     0
290
     0
174
     0
 93
        1
 44
0.0
173
     0
291
     0
 45
0.0
1001
ACAD
1000
AcDbSavedByObjectVersion
1070
     0
  0
VISUALSTYLE
  5
31
102
{ACAD_REACTORS
330
2A
102
}
102
{ACAD_XDICTIONARY
360
992
102
}
330
2A
100
AcDbVisualStyle
  2
3D Hidden
 70
     6
 71
     1
 72
     2
 73
     2
 90
        0
 40
-0.6
 41
-30.0
 62
     5
 63
     7
 74
     2
 91
        2
 64
     7
 65
   257
 75
     2
175
     1
 42
40.0
 92
        0
 66
   257
 43
1.0
 76
     1
 77
     6
 78
     2
 67
     7
 79
     3
170
     0
171
     0
290
     0
174
     0
 93
        1
 44
0.0
173
     0
291
     0
 45
0.0
1001
ACAD
1000
AcDbSavedByObjectVersion
1070
     0
  0
VISUALSTYLE
  5
30
102
{ACAD_REACTORS
330
2A
102
}
102
{ACAD_XDICTIONARY
360
990
102
}
330
2A
100
AcDbVisualStyle
  2
3dWireframe
 70
     5
 71
     0
 72
     2
 73
     0
 90
        0
 40
-0.6
 41
-30.0
 62
     5
 63
     7
 74
     1
 91
        4
 64
     7
 65
   257
 75
     1
175
     1
 42
1.0
 92
        0
 66
   257
 43
1.0
 76
     1
 77
     6
 78
     2
 67
     7
 79
     5
170
     0
171
     0
290
     0
174
     0
 93
        1
 44
0.0
173
     0
291
     0
 45
0.0
1001
ACAD
1000
AcDbSavedByObjectVersion
1070
     0
  0
VISUALSTYLE
  5
32
102
{ACAD_REACTORS
330
2A
102
}
102
{ACAD_XDICTIONARY
360
994
102
}
330
2A
100
AcDbVisualStyle
  2
Basic
 70
     7
 71
     1
 72
     0
 73
     1
 90
        0
 40
-0.6
 41
-30.0
 62
     5
 63
     7
 74
     0
 91
        4
 64
     7
 65
   257
 75
     1
175
     1
 42
1.0
 92
        8
 66
     7
 43
1.0
 76
     1
 77
     6
 78
     2
 67
     7
 79
     5
170
     0
171
     0
290
     0
174
     0
 93
        1
 44
0.0
173
     0
291
     1
 45
0.0
1001
ACAD
1000
AcDbSavedByObjectVersion
1070
     0
  0
VISUALSTYLE
  5
36
102
{ACAD_REACTORS
330
2A
102
}
102
{ACAD_XDICTIONARY
360
99C
102
}
330
2A
100
AcDbVisualStyle
  2
Brighten
 70
    12
 71
     2
 72
     2
 73
     0
 90
        0
 40
-0.6
 41
-30.0
 62
     5
 63
     7
 74
     1
 91
        4
 64
     7
 65
   257
 75
     1
175
     1
 42
1.0
 92
        8
 66
     7
 43
1.0
 76
     1
 77
     6
 78
     2
 67
     7
 79
     5
170
     0
171
     0
290
     0
174
     0
 93
        1
 44
50.0
173
     0
291
     1
 45
0.0
1001
ACAD
1000
AcDbSavedByObjectVersion
1070
     0
  0
VISUALSTYLE
  5
3A
102
{ACAD_REACTORS
330
2A
102
}
102
{ACAD_XDICTIONARY
360
9A4
102
}
330
2A
100
AcDbVisualStyle
  2
ColorChange
 70
    16
 71
     2
 72
     2
 73
     3
 90
        0
 40
-0.6
 41
-30.0
 62
     5
 63
     8
 74
     1
 91
        4
 64
     7
 65
   257
 75
     1
175
     1
 42
1.0
 92
        8
 66
     8
 43
1.0
 76
     1
 77
     6
 78
     2
 67
     7
 79
     5
170
     0
171
     0
290
     0
174
     0
 93
        1
 44
0.0
173
     0
291
     1
 45
0.0
1001
ACAD
1000
AcDbSavedByObjectVersion
1070
     0
  0
VISUALSTYLE
  5
34
102
{ACAD_REACTORS
330
2A
102
}
102
{ACAD_XDICTIONARY
360
998
102
}
330
2A
100
AcDbVisualStyle
  2
Conceptual
 70
     9
 71
     3
 72
     2
 73
     0
 90
        0
 40
-0.6
 41
-30.0
 62
     5
 63
     7
 74
     2
 91
        2
 64
     7
 65
   257
 75
     1
175
     1
 42
40.0
 92
        8
 66
     7
 43
1.0
 76
     1
 77
     6
 78
     2
 67
     7
 79
     3
170
     0
171
     0
290
     0
174
     0
 93
        1
 44
0.0
173
     0
291
     0
 45
0.0
1001
ACAD
1000
AcDbSavedByObjectVersion
1070
     0
  0
VISUALSTYLE
  5
35
102
{ACAD_REACTORS
330
2A
102
}
102
{ACAD_XDICTIONARY
360
99A
102
}
330
2A
100
AcDbVisualStyle
  2
Dim
 70
    11
 71
     2
 72
     2
 73
     0
 90
        0
 40
-0.6
 41
-30.0
 62
     5
 63
     7
 74
     1
 91
        4
 64
     7
 65
   257
 75
     1
175
     1
 42
1.0
 92
        8
 66
     7
 43
1.0
 76
     1
 77
     6
 78
     2
 67
     7
 79
     5
170
     0
171
     0
290
     0
174
     0
 93
        1
 44
-50.0
173
     0
291
     1
 45
0.0
1001
ACAD
1000
AcDbSavedByObjectVersion
1070
     0
  0
VISUALSTYLE
  5
39
102
{ACAD_REACTORS
330
2A
102
}
102
{ACAD_XDICTIONARY
360
9A2
102
}
330
2A
100
AcDbVisualStyle
  2
Facepattern
 70
    15
 71
     2
 72
     2
 73
     0
 90
        0
 40
-0.6
 41
-30.0
 62
     5
 63
     7
 74
     1
 91
        4
 64
     7
 65
   257
 75
     1
175
     1
 42
1.0
 92
        8
 66
     7
 43
1.0
 76
     1
 77
     6
 78
     2
 67
     7
 79
     5
170
     0
171
     0
290
     0
174
     0
 93
        1
 44
0.0
173
     0
291
     1
 45
0.0
1001
ACAD
1000
AcDbSavedByObjectVersion
1070
     0
  0
VISUALSTYLE
  5
2B
102
{ACAD_REACTORS
330
2A
102
}
102
{ACAD_XDICTIONARY
360
986
102
}
330
2A
100
AcDbVisualStyle
  2
Flat
 70
     0
 71
     2
 72
     1
 73
     1
 90
        2
 40
-0.6
 41
30.0
 62
     5
 63
     7
 74
     0
 91
        4
 64
     7
 65
   257
 75
     1
175
     1
 42
1.0
 92
        8
 66
     7
 43
1.0
 76
     1
 77
     6
 78
     2
 67
     7
 79
     5
170
     0
171
     0
290
     0
174
     0
 93
       13
 44
0.0
173
     0
291
     1
 45
0.0
1001
ACAD
1000
AcDbSavedByObjectVersion
1070
     0
  0
VISUALSTYLE
  5
2C
102
{ACAD_REACTORS
330
2A
102
}
102
{ACAD_XDICTIONARY
360
988
102
}
330
2A
100
AcDbVisualStyle
  2
FlatWithEdges
 70
     1
 71
     2
 72
     1
 73
     1
 90
        2
 40
-0.6
 41
30.0
 62
     5
 63
     7
 74
     1
 91
        4
 64
     7
 65
   257
 75
     1
175
     1
 42
1.0
 92
        0
 66
   257
 43
1.0
 76
     1
 77
     6
 78
     2
 67
     7
 79
     5
170
     0
171
     0
290
     0
174
     0
 93
       13
 44
0.0
173
     0
291
     1
 45
0.0
1001
ACAD
1000
AcDbSavedByObjectVersion
1070
     0
  0
VISUALSTYLE
  5
2D
102
{ACAD_REACTORS
330
2A
102
}
102
{ACAD_XDICTIONARY
360
98A
102
}
330
2A
100
AcDbVisualStyle
  2
Gouraud
 70
     2
 71
     2
 72
     2
 73
     1
 90
        2
 40
-0.6
 41
30.0
 62
     5
 63
     7
 74
     0
 91
        4
 64
     7
 65
   257
 75
     1
175
     1
 42
1.0
 92
        0
 66
     7
 43
1.0
 76
     1
 77
     6
 78
     2
 67
     7
 79
     5
170
     0
171
     0
290
     0
174
     0
 93
       13
 44
0.0
173
     0
291
     1
 45
0.0
1001
ACAD
1000
AcDbSavedByObjectVersion
1070
     0
  0
VISUALSTYLE
  5
2E
102
{ACAD_REACTORS
330
2A
102
}
102
{ACAD_XDICTIONARY
360
98C
102
}
330
2A
100
AcDbVisualStyle
  2
GouraudWithEdges
 70
     3
 71
     2
 72
     2
 73
     1
 90
        2
 40
-0.6
 41
30.0
 62
     5
 63
     7
 74
     1
 91
        4
 64
     7
 65
   257
 75
     1
175
     1
 42
1.0
 92
        0
 66
   257
 43
1.0
 76
     1
 77
     6
 78
     2
 67
     7
 79
     5
170
     0
171
     0
290
     0
174
     0
 93
       13
 44
0.0
173
     0
291
     1
 45
0.0
1001
ACAD
1000
AcDbSavedByObjectVersion
1070
     0
  0
VISUALSTYLE
  5
38
102
{ACAD_REACTORS
330
2A
102
}
102
{ACAD_XDICTIONARY
360
9A0
102
}
330
2A
100
AcDbVisualStyle
  2
Linepattern
 70
    14
 71
     2
 72
     2
 73
     0
 90
        0
 40
-0.6
 41
-30.0
 62
     5
 63
     7
 74
     1
 91
        4
 64
     7
 65
   257
 75
     7
175
     7
 42
1.0
 92
        8
 66
     7
 43
1.0
 76
     1
 77
     6
 78
     2
 67
     7
 79
     5
170
     0
171
     0
290
     0
174
     0
 93
        1
 44
0.0
173
     0
291
     1
 45
0.0
1001
ACAD
1000
AcDbSavedByObjectVersion
1070
     0
  0
VISUALSTYLE
  5
33
102
{ACAD_REACTORS
330
2A
102
}
102
{ACAD_XDICTIONARY
360
996
102
}
330
2A
100
AcDbVisualStyle
  2
Realistic
 70
     8
 71
     2
 72
     2
 73
     0
 90
        0
 40
-0.6
 41
-30.0
 62
     5
 63
     7
 74
     1
 91
        0
 64
     7
 65
   257
 75
     1
175
     1
 42
1.0
 92
        8
 66
     8
 43
1.0
 76
     1
 77
     6
 78
     2
 67
     7
 79
     5
170
     0
171
     0
290
     0
174
     0
 93
       13
 44
0.0
173
     0
291
     0
 45
0.0
1001
ACAD
1000
AcDbSavedByObjectVersion
1070
     0
  0
VISUALSTYLE
  5
37
102
{ACAD_REACTORS
330
2A
102
}
102
{ACAD_XDICTIONARY
360
99E
102
}
330
2A
100
AcDbVisualStyle
  2
Thicken
 70
    13
 71
     2
 72
     2
 73
     0
 90
        0
 40
-0.6
 41
-30.0
 62
     5
 63
     7
 74
     1
 91
        4
 64
     7
 65
   257
 75
     1
175
     1
 42
1.0
 92
       12
 66
     7
 43
1.0
 76
     1
 77
     6
 78
     2
 67
     7
 79
     5
170
     0
171
     0
290
     0
174
     0
 93
        1
 44
0.0
173
     0
291
     1
 45
0.0
1001
ACAD
1000
AcDbSavedByObjectVersion
1070
     0
  0
DICTIONARYVAR
  5
984
102
{ACAD_REACTORS
330
981
102
}
330
981
100
DictionaryVariables
280
     0
  1
2
  0
DICTIONARYVAR
  5
985
102
{ACAD_REACTORS
330
981
102
}
330
981
100
DictionaryVariables
280
     0
  1
1
  0
DICTIONARY
  5
9A8
330
3D
100
AcDbDictionary
280
     1
281
     1
  3
ACAD_XREC_ROUNDTRIP
360
9A9
  0
DICTIONARY
  5
9A6
330
3C
100
AcDbDictionary
280
     1
281
     1
  3
ACAD_XREC_ROUNDTRIP
360
9A7
  0
DICTIONARY
  5
9AA
330
3E
100
AcDbDictionary
280
     1
281
     1
  3
ACAD_XREC_ROUNDTRIP
360
9AB
  0
DICTIONARY
  5
98E
330
2F
100
AcDbDictionary
280
     1
281
     1
  3
ACAD_XREC_ROUNDTRIP
360
98F
  0
DICTIONARY
  5
992
330
31
100
AcDbDictionary
280
     1
281
     1
  3
ACAD_XREC_ROUNDTRIP
360
993
  0
DICTIONARY
  5
990
330
30
100
AcDbDictionary
280
     1
281
     1
  3
ACAD_XREC_ROUNDTRIP
360
991
  0
DICTIONARY
  5
994
330
32
100
AcDbDictionary
280
     1
281
     1
  3
ACAD_XREC_ROUNDTRIP
360
995
  0
DICTIONARY
  5
99C
330
36
100
AcDbDictionary
280
     1
281
     1
  3
ACAD_XREC_ROUNDTRIP
360
99D
  0
DICTIONARY
  5
9A4
330
3A
100
AcDbDictionary
280
     1
281
     1
  3
ACAD_XREC_ROUNDTRIP
360
9A5
  0
DICTIONARY
  5
998
330
34
100
AcDbDictionary
280
     1
281
     1
  3
ACAD_XREC_ROUNDTRIP
360
999
  0
DICTIONARY
  5
99A
330
35
100
AcDbDictionary
280
     1
281
     1
  3
ACAD_XREC_ROUNDTRIP
360
99B
  0
DICTIONARY
  5
9A2
330
39
100
AcDbDictionary
280
     1
281
     1
  3
ACAD_XREC_ROUNDTRIP
360
9A3
  0
DICTIONARY
  5
986
330
2B
100
AcDbDictionary
280
     1
281
     1
  3
ACAD_XREC_ROUNDTRIP
360
987
  0
DICTIONARY
  5
988
330
2C
100
AcDbDictionary
280
     1
281
     1
  3
ACAD_XREC_ROUNDTRIP
360
989
  0
DICTIONARY
  5
98A
330
2D
100
AcDbDictionary
280
     1
281
     1
  3
ACAD_XREC_ROUNDTRIP
360
98B
  0
DICTIONARY
  5
98C
330
2E
100
AcDbDictionary
280
     1
281
     1
  3
ACAD_XREC_ROUNDTRIP
360
98D
  0
DICTIONARY
  5
9A0
330
38
100
AcDbDictionary
280
     1
281
     1
  3
ACAD_XREC_ROUNDTRIP
360
9A1
  0
DICTIONARY
  5
996
330
33
100
AcDbDictionary
280
     1
281
     1
  3
ACAD_XREC_ROUNDTRIP
360
997
  0
DICTIONARY
  5
99E
330
37
100
AcDbDictionary
280
     1
281
     1
  3
ACAD_XREC_ROUNDTRIP
360
99F
  0
XRECORD
  5
9A9
102
{ACAD_REACTORS
330
9A8
102
}
330
9A8
100
AcDbXrecord
280
     1
102
MATERIAL
148
0.0
149
0.0
149
0.0
 93
        0
 94
      127
282
     0
 72
     1
 77
     1
171
     1
175
     1
179
     1
273
     0
  0
XRECORD
  5
9A7
102
{ACAD_REACTORS
330
9A6
102
}
330
9A6
100
AcDbXrecord
280
     1
102
MATERIAL
148
0.0
149
0.0
149
0.0
 93
        0
 94
      127
282
     0
 72
     1
 77
     1
171
     1
175
     1
179
     1
273
     0
  0
XRECORD
  5
9AB
102
{ACAD_REACTORS
330
9AA
102
}
330
9AA
100
AcDbXrecord
280
     1
102
MATERIAL
148
0.0
149
0.0
149
0.0
 93
        0
 94
      127
282
     0
 72
     1
 77
     1
171
     1
175
     1
179
     1
273
     0
  0
XRECORD
  5
98F
102
{ACAD_REACTORS
330
98E
102
}
330
98E
100
AcDbXrecord
280
     1
102
RTVSPropertyOp0
 70
     1
102
RTVSPropertyOp1
 70
     1
102
RTVSPropertyOp2
 70
     1
102
RTVSPropertyOp3
 70
     1
102
RTVSPropertyOp4
 70
     1
102
RTVSPropertyOp5
 70
     1
102
RTVSPropertyOp6
 70
     1
102
RTVSPropertyOp7
 70
     1
102
RTVSPropertyOp8
 70
     1
102
RTVSPropertyOp9
 70
     1
102
RTVSPropertyOp10
 70
     1
102
RTVSPropertyOp11
 70
     1
102
RTVSPropertyOp12
 70
     1
102
RTVSPropertyOp13
 70
     1
102
RTVSPropertyOp14
 70
     1
102
RTVSPropertyOp15
 70
     1
102
RTVSPropertyOp16
 70
     1
102
RTVSPropertyOp17
 70
     1
102
RTVSPropertyOp18
 70
     1
102
RTVSPropertyOp19
 70
     1
102
RTVSPropertyOp20
 70
     1
102
RTVSPropertyOp21
 70
     1
102
RTVSPropertyOp22
 70
     1
102
RTVSPropertyOp23
 70
     1
102
RTVSPropertyOp24
 70
     1
102
RTVSPropertyOp25
 70
     1
102
RTVSPropertyOp26
 70
     1
102
RTVSPropertyOp27
 70
     1
102
RTVSPropertyOp28
 70
     1
102
RTVSPropertyOp29
 70
     1
102
RTVSPropertyOp30
 70
     1
102
RTVSPropertyOp31
 70
     1
102
RTVSPropertyOp32
 70
     1
  0
XRECORD
  5
993
102
{ACAD_REACTORS
330
992
102
}
330
992
100
AcDbXrecord
280
     1
102
RTVSPropertyOp0
 70
     1
102
RTVSPropertyOp1
 70
     1
102
RTVSPropertyOp2
 70
     1
102
RTVSPropertyOp3
 70
     1
102
RTVSPropertyOp4
 70
     1
102
RTVSPropertyOp5
 70
     1
102
RTVSPropertyOp6
 70
     1
102
RTVSPropertyOp7
 70
     1
102
RTVSPropertyOp8
 70
     1
102
RTVSPropertyOp9
 70
     1
102
RTVSPropertyOp10
 70
     1
102
RTVSPropertyOp11
 70
     1
102
RTVSPropertyOp12
 70
     1
102
RTVSPropertyOp13
 70
     1
102
RTVSPropertyOp14
 70
     1
102
RTVSPropertyOp15
 70
     1
102
RTVSPropertyOp16
 70
     1
102
RTVSPropertyOp17
 70
     1
102
RTVSPropertyOp18
 70
     1
102
RTVSPropertyOp19
 70
     1
102
RTVSPropertyOp20
 70
     1
102
RTVSPropertyOp21
 70
     1
102
RTVSPropertyOp22
 70
     1
102
RTVSPropertyOp23
 70
     1
102
RTVSPropertyOp24
 70
     1
102
RTVSPropertyOp25
 70
     1
102
RTVSPropertyOp26
 70
     1
102
RTVSPropertyOp27
 70
     1
102
RTVSPropertyOp28
 70
     1
102
RTVSPropertyOp29
 70
     1
102
RTVSPropertyOp30
 70
     1
102
RTVSPropertyOp31
 70
     1
102
RTVSPropertyOp32
 70
     1
  0
XRECORD
  5
991
102
{ACAD_REACTORS
330
990
102
}
330
990
100
AcDbXrecord
280
     1
102
RTVSPropertyOp0
 70
     1
102
RTVSPropertyOp1
 70
     1
102
RTVSPropertyOp2
 70
     1
102
RTVSPropertyOp3
 70
     1
102
RTVSPropertyOp4
 70
     1
102
RTVSPropertyOp5
 70
     1
102
RTVSPropertyOp6
 70
     1
102
RTVSPropertyOp7
 70
     1
102
RTVSPropertyOp8
 70
     1
102
RTVSPropertyOp9
 70
     1
102
RTVSPropertyOp10
 70
     1
102
RTVSPropertyOp11
 70
     1
102
RTVSPropertyOp12
 70
     1
102
RTVSPropertyOp13
 70
     1
102
RTVSPropertyOp14
 70
     1
102
RTVSPropertyOp15
 70
     1
102
RTVSPropertyOp16
 70
     1
102
RTVSPropertyOp17
 70
     1
102
RTVSPropertyOp18
 70
     1
102
RTVSPropertyOp19
 70
     1
102
RTVSPropertyOp20
 70
     1
102
RTVSPropertyOp21
 70
     1
102
RTVSPropertyOp22
 70
     1
102
RTVSPropertyOp23
 70
     1
102
RTVSPropertyOp24
 70
     1
102
RTVSPropertyOp25
 70
     1
102
RTVSPropertyOp26
 70
     1
102
RTVSPropertyOp27
 70
     1
102
RTVSPropertyOp28
 70
     1
102
RTVSPropertyOp29
 70
     1
102
RTVSPropertyOp30
 70
     1
102
RTVSPropertyOp31
 70
     1
102
RTVSPropertyOp32
 70
     1
  0
XRECORD
  5
995
102
{ACAD_REACTORS
330
994
102
}
330
994
100
AcDbXrecord
280
     1
102
RTVSPropertyOp0
 70
     1
102
RTVSPropertyOp1
 70
     1
102
RTVSPropertyOp2
 70
     1
102
RTVSPropertyOp3
 70
     1
102
RTVSPropertyOp4
 70
     1
102
RTVSPropertyOp5
 70
     1
102
RTVSPropertyOp6
 70
     1
102
RTVSPropertyOp7
 70
     1
102
RTVSPropertyOp8
 70
     1
102
RTVSPropertyOp9
 70
     1
102
RTVSPropertyOp10
 70
     1
102
RTVSPropertyOp11
 70
     1
102
RTVSPropertyOp12
 70
     1
102
RTVSPropertyOp13
 70
     1
102
RTVSPropertyOp14
 70
     1
102
RTVSPropertyOp15
 70
     1
102
RTVSPropertyOp16
 70
     1
102
RTVSPropertyOp17
 70
     1
102
RTVSPropertyOp18
 70
     1
102
RTVSPropertyOp19
 70
     1
102
RTVSPropertyOp20
 70
     1
102
RTVSPropertyOp21
 70
     1
102
RTVSPropertyOp22
 70
     1
102
RTVSPropertyOp23
 70
     1
102
RTVSPropertyOp24
 70
     1
102
RTVSPropertyOp25
 70
     1
102
RTVSPropertyOp26
 70
     1
102
RTVSPropertyOp27
 70
     1
102
RTVSPropertyOp28
 70
     1
102
RTVSPropertyOp29
 70
     1
102
RTVSPropertyOp30
 70
     1
102
RTVSPropertyOp31
 70
     1
102
RTVSPropertyOp32
 70
     1
  0
XRECORD
  5
99D
102
{ACAD_REACTORS
330
99C
102
}
330
99C
100
AcDbXrecord
280
     1
102
RTVSPropertyOp0
 70
     1
102
RTVSPropertyOp1
 70
     1
102
RTVSPropertyOp2
 70
     1
102
RTVSPropertyOp3
 70
     1
102
RTVSPropertyOp4
 70
     1
102
RTVSPropertyOp5
 70
     1
102
RTVSPropertyOp6
 70
     1
102
RTVSPropertyOp7
 70
     1
102
RTVSPropertyOp8
 70
     1
102
RTVSPropertyOp9
 70
     1
102
RTVSPropertyOp10
 70
     1
102
RTVSPropertyOp11
 70
     1
102
RTVSPropertyOp12
 70
     1
102
RTVSPropertyOp13
 70
     1
102
RTVSPropertyOp14
 70
     1
102
RTVSPropertyOp15
 70
     1
102
RTVSPropertyOp16
 70
     1
102
RTVSPropertyOp17
 70
     1
102
RTVSPropertyOp18
 70
     1
102
RTVSPropertyOp19
 70
     1
102
RTVSPropertyOp20
 70
     1
102
RTVSPropertyOp21
 70
     1
102
RTVSPropertyOp22
 70
     1
102
RTVSPropertyOp23
 70
     1
102
RTVSPropertyOp24
 70
     1
102
RTVSPropertyOp25
 70
     1
102
RTVSPropertyOp26
 70
     1
102
RTVSPropertyOp27
 70
     1
102
RTVSPropertyOp28
 70
     1
102
RTVSPropertyOp29
 70
     1
102
RTVSPropertyOp30
 70
     1
102
RTVSPropertyOp31
 70
     1
102
RTVSPropertyOp32
 70
     1
  0
XRECORD
  5
9A5
102
{ACAD_REACTORS
330
9A4
102
}
330
9A4
100
AcDbXrecord
280
     1
102
RTVSPropertyOp0
 70
     1
102
RTVSPropertyOp1
 70
     1
102
RTVSPropertyOp2
 70
     1
102
RTVSPropertyOp3
 70
     1
102
RTVSPropertyOp4
 70
     1
102
RTVSPropertyOp5
 70
     1
102
RTVSPropertyOp6
 70
     1
102
RTVSPropertyOp7
 70
     1
102
RTVSPropertyOp8
 70
     1
102
RTVSPropertyOp9
 70
     1
102
RTVSPropertyOp10
 70
     1
102
RTVSPropertyOp11
 70
     1
102
RTVSPropertyOp12
 70
     1
102
RTVSPropertyOp13
 70
     1
102
RTVSPropertyOp14
 70
     1
102
RTVSPropertyOp15
 70
     1
102
RTVSPropertyOp16
 70
     1
102
RTVSPropertyOp17
 70
     1
102
RTVSPropertyOp18
 70
     1
102
RTVSPropertyOp19
 70
     1
102
RTVSPropertyOp20
 70
     1
102
RTVSPropertyOp21
 70
     1
102
RTVSPropertyOp22
 70
     1
102
RTVSPropertyOp23
 70
     1
102
RTVSPropertyOp24
 70
     1
102
RTVSPropertyOp25
 70
     1
102
RTVSPropertyOp26
 70
     1
102
RTVSPropertyOp27
 70
     1
102
RTVSPropertyOp28
 70
     1
102
RTVSPropertyOp29
 70
     1
102
RTVSPropertyOp30
 70
     1
102
RTVSPropertyOp31
 70
     1
102
RTVSPropertyOp32
 70
     1
  0
XRECORD
  5
999
102
{ACAD_REACTORS
330
998
102
}
330
998
100
AcDbXrecord
280
     1
102
RTVSPropertyOp0
 70
     1
102
RTVSPropertyOp1
 70
     1
102
RTVSPropertyOp2
 70
     1
102
RTVSPropertyOp3
 70
     1
102
RTVSPropertyOp4
 70
     1
102
RTVSPropertyOp5
 70
     1
102
RTVSPropertyOp6
 70
     1
102
RTVSPropertyOp7
 70
     1
102
RTVSPropertyOp8
 70
     1
102
RTVSPropertyOp9
 70
     1
102
RTVSPropertyOp10
 70
     1
102
RTVSPropertyOp11
 70
     1
102
RTVSPropertyOp12
 70
     1
102
RTVSPropertyOp13
 70
     1
102
RTVSPropertyOp14
 70
     1
102
RTVSPropertyOp15
 70
     1
102
RTVSPropertyOp16
 70
     1
102
RTVSPropertyOp17
 70
     1
102
RTVSPropertyOp18
 70
     1
102
RTVSPropertyOp19
 70
     1
102
RTVSPropertyOp20
 70
     1
102
RTVSPropertyOp21
 70
     1
102
RTVSPropertyOp22
 70
     1
102
RTVSPropertyOp23
 70
     1
102
RTVSPropertyOp24
 70
     1
102
RTVSPropertyOp25
 70
     1
102
RTVSPropertyOp26
 70
     1
102
RTVSPropertyOp27
 70
     1
102
RTVSPropertyOp28
 70
     1
102
RTVSPropertyOp29
 70
     1
102
RTVSPropertyOp30
 70
     1
102
RTVSPropertyOp31
 70
     1
102
RTVSPropertyOp32
 70
     1
  0
XRECORD
  5
99B
102
{ACAD_REACTORS
330
99A
102
}
330
99A
100
AcDbXrecord
280
     1
102
RTVSPropertyOp0
 70
     1
102
RTVSPropertyOp1
 70
     1
102
RTVSPropertyOp2
 70
     1
102
RTVSPropertyOp3
 70
     1
102
RTVSPropertyOp4
 70
     1
102
RTVSPropertyOp5
 70
     1
102
RTVSPropertyOp6
 70
     1
102
RTVSPropertyOp7
 70
     1
102
RTVSPropertyOp8
 70
     1
102
RTVSPropertyOp9
 70
     1
102
RTVSPropertyOp10
 70
     1
102
RTVSPropertyOp11
 70
     1
102
RTVSPropertyOp12
 70
     1
102
RTVSPropertyOp13
 70
     1
102
RTVSPropertyOp14
 70
     1
102
RTVSPropertyOp15
 70
     1
102
RTVSPropertyOp16
 70
     1
102
RTVSPropertyOp17
 70
     1
102
RTVSPropertyOp18
 70
     1
102
RTVSPropertyOp19
 70
     1
102
RTVSPropertyOp20
 70
     1
102
RTVSPropertyOp21
 70
     1
102
RTVSPropertyOp22
 70
     1
102
RTVSPropertyOp23
 70
     1
102
RTVSPropertyOp24
 70
     1
102
RTVSPropertyOp25
 70
     1
102
RTVSPropertyOp26
 70
     1
102
RTVSPropertyOp27
 70
     1
102
RTVSPropertyOp28
 70
     1
102
RTVSPropertyOp29
 70
     1
102
RTVSPropertyOp30
 70
     1
102
RTVSPropertyOp31
 70
     1
102
RTVSPropertyOp32
 70
     1
  0
XRECORD
  5
9A3
102
{ACAD_REACTORS
330
9A2
102
}
330
9A2
100
AcDbXrecord
280
     1
102
RTVSPropertyOp0
 70
     1
102
RTVSPropertyOp1
 70
     1
102
RTVSPropertyOp2
 70
     1
102
RTVSPropertyOp3
 70
     1
102
RTVSPropertyOp4
 70
     1
102
RTVSPropertyOp5
 70
     1
102
RTVSPropertyOp6
 70
     1
102
RTVSPropertyOp7
 70
     1
102
RTVSPropertyOp8
 70
     1
102
RTVSPropertyOp9
 70
     1
102
RTVSPropertyOp10
 70
     1
102
RTVSPropertyOp11
 70
     1
102
RTVSPropertyOp12
 70
     1
102
RTVSPropertyOp13
 70
     1
102
RTVSPropertyOp14
 70
     1
102
RTVSPropertyOp15
 70
     1
102
RTVSPropertyOp16
 70
     1
102
RTVSPropertyOp17
 70
     1
102
RTVSPropertyOp18
 70
     1
102
RTVSPropertyOp19
 70
     1
102
RTVSPropertyOp20
 70
     1
102
RTVSPropertyOp21
 70
     1
102
RTVSPropertyOp22
 70
     1
102
RTVSPropertyOp23
 70
     1
102
RTVSPropertyOp24
 70
     1
102
RTVSPropertyOp25
 70
     1
102
RTVSPropertyOp26
 70
     1
102
RTVSPropertyOp27
 70
     1
102
RTVSPropertyOp28
 70
     1
102
RTVSPropertyOp29
 70
     1
102
RTVSPropertyOp30
 70
     1
102
RTVSPropertyOp31
 70
     1
102
RTVSPropertyOp32
 70
     1
  0
XRECORD
  5
987
102
{ACAD_REACTORS
330
986
102
}
330
986
100
AcDbXrecord
280
     1
102
RTVSPropertyOp0
 70
     1
102
RTVSPropertyOp1
 70
     1
102
RTVSPropertyOp2
 70
     1
102
RTVSPropertyOp3
 70
     1
102
RTVSPropertyOp4
 70
     1
102
RTVSPropertyOp5
 70
     1
102
RTVSPropertyOp6
 70
     1
102
RTVSPropertyOp7
 70
     1
102
RTVSPropertyOp8
 70
     1
102
RTVSPropertyOp9
 70
     1
102
RTVSPropertyOp10
 70
     1
102
RTVSPropertyOp11
 70
     1
102
RTVSPropertyOp12
 70
     1
102
RTVSPropertyOp13
 70
     1
102
RTVSPropertyOp14
 70
     1
102
RTVSPropertyOp15
 70
     1
102
RTVSPropertyOp16
 70
     1
102
RTVSPropertyOp17
 70
     1
102
RTVSPropertyOp18
 70
     1
102
RTVSPropertyOp19
 70
     1
102
RTVSPropertyOp20
 70
     1
102
RTVSPropertyOp21
 70
     1
102
RTVSPropertyOp22
 70
     1
102
RTVSPropertyOp23
 70
     1
102
RTVSPropertyOp24
 70
     1
102
RTVSPropertyOp25
 70
     1
102
RTVSPropertyOp26
 70
     1
102
RTVSPropertyOp27
 70
     1
102
RTVSPropertyOp28
 70
     1
102
RTVSPropertyOp29
 70
     1
102
RTVSPropertyOp30
 70
     1
102
RTVSPropertyOp31
 70
     1
102
RTVSPropertyOp32
 70
     1
  0
XRECORD
  5
989
102
{ACAD_REACTORS
330
988
102
}
330
988
100
AcDbXrecord
280
     1
102
RTVSPropertyOp0
 70
     1
102
RTVSPropertyOp1
 70
     1
102
RTVSPropertyOp2
 70
     1
102
RTVSPropertyOp3
 70
     1
102
RTVSPropertyOp4
 70
     1
102
RTVSPropertyOp5
 70
     1
102
RTVSPropertyOp6
 70
     1
102
RTVSPropertyOp7
 70
     1
102
RTVSPropertyOp8
 70
     1
102
RTVSPropertyOp9
 70
     1
102
RTVSPropertyOp10
 70
     1
102
RTVSPropertyOp11
 70
     1
102
RTVSPropertyOp12
 70
     1
102
RTVSPropertyOp13
 70
     1
102
RTVSPropertyOp14
 70
     1
102
RTVSPropertyOp15
 70
     1
102
RTVSPropertyOp16
 70
     1
102
RTVSPropertyOp17
 70
     1
102
RTVSPropertyOp18
 70
     1
102
RTVSPropertyOp19
 70
     1
102
RTVSPropertyOp20
 70
     1
102
RTVSPropertyOp21
 70
     1
102
RTVSPropertyOp22
 70
     1
102
RTVSPropertyOp23
 70
     1
102
RTVSPropertyOp24
 70
     1
102
RTVSPropertyOp25
 70
     1
102
RTVSPropertyOp26
 70
     1
102
RTVSPropertyOp27
 70
     1
102
RTVSPropertyOp28
 70
     1
102
RTVSPropertyOp29
 70
     1
102
RTVSPropertyOp30
 70
     1
102
RTVSPropertyOp31
 70
     1
102
RTVSPropertyOp32
 70
     1
  0
XRECORD
  5
98B
102
{ACAD_REACTORS
330
98A
102
}
330
98A
100
AcDbXrecord
280
     1
102
RTVSPropertyOp0
 70
     1
102
RTVSPropertyOp1
 70
     1
102
RTVSPropertyOp2
 70
     1
102
RTVSPropertyOp3
 70
     1
102
RTVSPropertyOp4
 70
     1
102
RTVSPropertyOp5
 70
     1
102
RTVSPropertyOp6
 70
     1
102
RTVSPropertyOp7
 70
     1
102
RTVSPropertyOp8
 70
     1
102
RTVSPropertyOp9
 70
     1
102
RTVSPropertyOp10
 70
     1
102
RTVSPropertyOp11
 70
     1
102
RTVSPropertyOp12
 70
     1
102
RTVSPropertyOp13
 70
     1
102
RTVSPropertyOp14
 70
     1
102
RTVSPropertyOp15
 70
     1
102
RTVSPropertyOp16
 70
     1
102
RTVSPropertyOp17
 70
     1
102
RTVSPropertyOp18
 70
     1
102
RTVSPropertyOp19
 70
     1
102
RTVSPropertyOp20
 70
     1
102
RTVSPropertyOp21
 70
     1
102
RTVSPropertyOp22
 70
     1
102
RTVSPropertyOp23
 70
     1
102
RTVSPropertyOp24
 70
     1
102
RTVSPropertyOp25
 70
     1
102
RTVSPropertyOp26
 70
     1
102
RTVSPropertyOp27
 70
     1
102
RTVSPropertyOp28
 70
     1
102
RTVSPropertyOp29
 70
     1
102
RTVSPropertyOp30
 70
     1
102
RTVSPropertyOp31
 70
     1
102
RTVSPropertyOp32
 70
     1
  0
XRECORD
  5
98D
102
{ACAD_REACTORS
330
98C
102
}
330
98C
100
AcDbXrecord
280
     1
102
RTVSPropertyOp0
 70
     1
102
RTVSPropertyOp1
 70
     1
102
RTVSPropertyOp2
 70
     1
102
RTVSPropertyOp3
 70
     1
102
RTVSPropertyOp4
 70
     1
102
RTVSPropertyOp5
 70
     1
102
RTVSPropertyOp6
 70
     1
102
RTVSPropertyOp7
 70
     1
102
RTVSPropertyOp8
 70
     1
102
RTVSPropertyOp9
 70
     1
102
RTVSPropertyOp10
 70
     1
102
RTVSPropertyOp11
 70
     1
102
RTVSPropertyOp12
 70
     1
102
RTVSPropertyOp13
 70
     1
102
RTVSPropertyOp14
 70
     1
102
RTVSPropertyOp15
 70
     1
102
RTVSPropertyOp16
 70
     1
102
RTVSPropertyOp17
 70
     1
102
RTVSPropertyOp18
 70
     1
102
RTVSPropertyOp19
 70
     1
102
RTVSPropertyOp20
 70
     1
102
RTVSPropertyOp21
 70
     1
102
RTVSPropertyOp22
 70
     1
102
RTVSPropertyOp23
 70
     1
102
RTVSPropertyOp24
 70
     1
102
RTVSPropertyOp25
 70
     1
102
RTVSPropertyOp26
 70
     1
102
RTVSPropertyOp27
 70
     1
102
RTVSPropertyOp28
 70
     1
102
RTVSPropertyOp29
 70
     1
102
RTVSPropertyOp30
 70
     1
102
RTVSPropertyOp31
 70
     1
102
RTVSPropertyOp32
 70
     1
  0
XRECORD
  5
9A1
102
{ACAD_REACTORS
330
9A0
102
}
330
9A0
100
AcDbXrecord
280
     1
102
RTVSPropertyOp0
 70
     1
102
RTVSPropertyOp1
 70
     1
102
RTVSPropertyOp2
 70
     1
102
RTVSPropertyOp3
 70
     1
102
RTVSPropertyOp4
 70
     1
102
RTVSPropertyOp5
 70
     1
102
RTVSPropertyOp6
 70
     1
102
RTVSPropertyOp7
 70
     1
102
RTVSPropertyOp8
 70
     1
102
RTVSPropertyOp9
 70
     1
102
RTVSPropertyOp10
 70
     1
102
RTVSPropertyOp11
 70
     1
102
RTVSPropertyOp12
 70
     1
102
RTVSPropertyOp13
 70
     1
102
RTVSPropertyOp14
 70
     1
102
RTVSPropertyOp15
 70
     1
102
RTVSPropertyOp16
 70
     1
102
RTVSPropertyOp17
 70
     1
102
RTVSPropertyOp18
 70
     1
102
RTVSPropertyOp19
 70
     1
102
RTVSPropertyOp20
 70
     1
102
RTVSPropertyOp21
 70
     1
102
RTVSPropertyOp22
 70
     1
102
RTVSPropertyOp23
 70
     1
102
RTVSPropertyOp24
 70
     1
102
RTVSPropertyOp25
 70
     1
102
RTVSPropertyOp26
 70
     1
102
RTVSPropertyOp27
 70
     1
102
RTVSPropertyOp28
 70
     1
102
RTVSPropertyOp29
 70
     1
102
RTVSPropertyOp30
 70
     1
102
RTVSPropertyOp31
 70
     1
102
RTVSPropertyOp32
 70
     1
  0
XRECORD
  5
997
102
{ACAD_REACTORS
330
996
102
}
330
996
100
AcDbXrecord
280
     1
102
RTVSPropertyOp0
 70
     1
102
RTVSPropertyOp1
 70
     1
102
RTVSPropertyOp2
 70
     1
102
RTVSPropertyOp3
 70
     1
102
RTVSPropertyOp4
 70
     1
102
RTVSPropertyOp5
 70
     1
102
RTVSPropertyOp6
 70
     1
102
RTVSPropertyOp7
 70
     1
102
RTVSPropertyOp8
 70
     1
102
RTVSPropertyOp9
 70
     1
102
RTVSPropertyOp10
 70
     1
102
RTVSPropertyOp11
 70
     1
102
RTVSPropertyOp12
 70
     1
102
RTVSPropertyOp13
 70
     1
102
RTVSPropertyOp14
 70
     1
102
RTVSPropertyOp15
 70
     1
102
RTVSPropertyOp16
 70
     1
102
RTVSPropertyOp17
 70
     1
102
RTVSPropertyOp18
 70
     1
102
RTVSPropertyOp19
 70
     1
102
RTVSPropertyOp20
 70
     1
102
RTVSPropertyOp21
 70
     1
102
RTVSPropertyOp22
 70
     1
102
RTVSPropertyOp23
 70
     1
102
RTVSPropertyOp24
 70
     1
102
RTVSPropertyOp25
 70
     1
102
RTVSPropertyOp26
 70
     1
102
RTVSPropertyOp27
 70
     1
102
RTVSPropertyOp28
 70
     1
102
RTVSPropertyOp29
 70
     1
102
RTVSPropertyOp30
 70
     1
102
RTVSPropertyOp31
 70
     1
102
RTVSPropertyOp32
 70
     1
  0
XRECORD
  5
99F
102
{ACAD_REACTORS
330
99E
102
}
330
99E
100
AcDbXrecord
280
     1
102
RTVSPropertyOp0
 70
     1
102
RTVSPropertyOp1
 70
     1
102
RTVSPropertyOp2
 70
     1
102
RTVSPropertyOp3
 70
     1
102
RTVSPropertyOp4
 70
     1
102
RTVSPropertyOp5
 70
     1
102
RTVSPropertyOp6
 70
     1
102
RTVSPropertyOp7
 70
     1
102
RTVSPropertyOp8
 70
     1
102
RTVSPropertyOp9
 70
     1
102
RTVSPropertyOp10
 70
     1
102
RTVSPropertyOp11
 70
     1
102
RTVSPropertyOp12
 70
     1
102
RTVSPropertyOp13
 70
     1
102
RTVSPropertyOp14
 70
     1
102
RTVSPropertyOp15
 70
     1
102
RTVSPropertyOp16
 70
     1
102
RTVSPropertyOp17
 70
     1
102
RTVSPropertyOp18
 70
     1
102
RTVSPropertyOp19
 70
     1
102
RTVSPropertyOp20
 70
     1
102
RTVSPropertyOp21
 70
     1
102
RTVSPropertyOp22
 70
     1
102
RTVSPropertyOp23
 70
     1
102
RTVSPropertyOp24
 70
     1
102
RTVSPropertyOp25
 70
     1
102
RTVSPropertyOp26
 70
     1
102
RTVSPropertyOp27
 70
     1
102
RTVSPropertyOp28
 70
     1
102
RTVSPropertyOp29
 70
     1
102
RTVSPropertyOp30
 70
     1
102
RTVSPropertyOp31
 70
     1
102
RTVSPropertyOp32
 70
     1
  0
ENDSEC
  0
EOF
